×

¿Problemas para descargar con Mozilla, EDGE? Deshabilita la opción "Abrir vinculos en una pestaña nueva" tal como lo muestra ésta imagen.

La Mujer Rey (2022) WEB-DL 1080p Latino

14 vistas

Información de La Mujer Rey (2022) WEB-DL 1080p Latino

Datos de la película

  • Calidad: WEBDL
  • Audio: Español Latino AC3 5.1 WEB-DL - Ingles AC3 5.1 WEB-DL
  • Subtitulos: Español Latino SRT- FORZADOS SRT
  • Resolución: 1920x802p
  • Formato: MKV
  • Codec: H.264
  • Encoder: Melkor
  • Mediainfo: Clic para Mostrar Datos Ver
  • La Mujer Rey (2022) WebDL 1080p Latino.mkv
    Format                      : Matroska
    Format version              : Version 4
    File size                   : 7.40 GiB
    Duration                    : 2 h 14 min
    Overall bit rate            : 7 857 kb/s
    Movie name                  : The Woman King (2022) CinemaniaHDD.Net
    Encoded date                : UTC 2022-11-23 06:28:28
    Writing application         : mkvmerge v56.1.0 ('My Friend') 64-bit
    Writing library             : libebml v1.4.2 + libmatroska v1.6.4
    Attachments                 : CINEMANIAHD.png

    Video
    ID                          : 1
    Format                      : AVC
    Format/Info                 : Advanced Video Codec
    Format profile              : High@L4
    Format settings             : CABAC / 5 Ref Frames
    Format settings, CABAC      : Yes
    Format settings, Reference  : 5 frames
    Codec ID                    : V_MPEG4/ISO/AVC
    Duration                    : 2 h 14 min
    Bit rate                    : 6 638 kb/s
    Width                       : 1 920 pixels
    Height                      : 802 pixels
    Display aspect ratio        : 2.40:1
    Frame rate mode             : Constant
    Frame rate                  : 23.976 (24000/1001) FPS
    Color space                 : YUV
    Chroma subsampling          : 4:2:0
    Bit depth                   : 8 bits
    Scan type                   : Progressive
    Bits/(Pixel*Frame)          : 0.180
    Stream size                 : 6.25 GiB (84%)
    Title                       : Web HD1080p [CinemaniaHDD]
    Default                     : Yes
    Forced                      : Yes
    Color range                 : Limited
    Color primaries             : BT.709
    Transfer characteristics    : BT.709
    Matrix coefficients         : BT.709

    Audio #1
    ID                          : 2
    Format                      : AC-3
    Format/Info                 : Audio Coding 3
    Commercial name             : Dolby Digital
    Codec ID                    : A_AC3
    Duration                    : 2 h 14 min
    Bit rate mode               : Constant
    Bit rate                    : 448 kb/s
    Channel(s)                  : 6 channels
    Channel layout              : L R C LFE Ls Rs
    Sampling rate               : 48.0 kHz
    Frame rate                  : 31.250 FPS (1536 SPF)
    Compression mode            : Lossy
    Stream size                 : 432 MiB (6%)
    Title                       : Español Latino [CinemaniaHDD]
    Language                    : Spanish
    Service kind                : Complete Main
    Default                     : Yes
    Forced                      : Yes

    Audio #2
    ID                          : 3
    Format                      : E-AC-3 JOC
    Format/Info                 : Enhanced AC-3 with Joint Object Coding
    Commercial name             : Dolby Digital Plus with Dolby Atmos
    Codec ID                    : A_EAC3
    Duration                    : 2 h 14 min
    Bit rate mode               : Constant
    Bit rate                    : 768 kb/s
    Channel(s)                  : 6 channels
    Channel layout              : L R C LFE Ls Rs
    Sampling rate               : 48.0 kHz
    Frame rate                  : 31.250 FPS (1536 SPF)
    Compression mode            : Lossy
    Stream size                 : 741 MiB (10%)
    Title                       : Ingles [CinemaniaHDD]
    Language                    : English
    Service kind                : Complete Main
    Default                     : No
    Forced                      : No
    Complexity index            : 16
    Number of dynamic objects   : 15
    Bed channel count           : 1 channel
    Bed channel configuration   : LFE

    Text #1
    ID                          : 4
    Format                      : UTF-8
    Codec ID                    : S_TEXT/UTF8
    Codec ID/Info               : UTF-8 Plain Text
    Duration                    : 2 h 13 min
    Bit rate                    : 1 b/s
    Count of elements           : 41
    Stream size                 : 1.09 KiB (0%)
    Title                       : Forzados-SRT [CinemaniaHDD]
    Language                    : Spanish
    Default                     : Yes
    Forced                      : Yes

    Text #2
    ID                          : 5
    Format                      : UTF-8
    Codec ID                    : S_TEXT/UTF8
    Codec ID/Info               : UTF-8 Plain Text
    Duration                    : 2 h 13 min
    Bit rate                    : 30 b/s
    Count of elements           : 1123
    Stream size                 : 30.4 KiB (0%)
    Title                       : Español-SRT [CinemaniaHDD]
    Language                    : Spanish
    Default                     : No
    Forced                      : No

    Text #3
    ID                          : 6
    Format                      : UTF-8
    Codec ID                    : S_TEXT/UTF8
    Codec ID/Info               : UTF-8 Plain Text
    Duration                    : 2 h 6 min
    Bit rate                    : 31 b/s
    Count of elements           : 1103
    Stream size                 : 29.5 KiB (0%)
    Title                       : Ingles-SRT [CinemaniaHDD]
    Language                    : English
    Default                     : No
    Forced                      : No

    Menu
    00:00:00.000                : 1
    00:08:05.000                : 2
    00:15:24.000                : 3
    00:25:06.000                : 4
    00:34:32.000                : 5
    00:43:18.000                : 6
    00:51:01.000                : 7
    00:56:30.000                : 8
    01:05:52.000                : 9
    01:11:50.000                : 10
    01:20:03.000                : 11
    01:30:27.000                : 12
    01:35:41.000                : 13
    01:45:51.000                : 14
    01:53:40.000                : 15
    02:02:12.000                : 16

  • Peso: 7.40 GiB

Sinopsis

Descargar La Mujer Rey (2022) WEB-DL 1080p Latino. Una epopeya histórica inspirada en los hechos reales que sucedieron en el Reino de Dahomey, uno de los estados más poderosos de África en los siglos XVIII y XIX. La historia sigue a Nanisca (Davis), general de la unidad militar exclusivamente femenina y a Nawi (Mbedu), una recluta ambiciosa. Juntas lucharon contra enemigos que violaron su honor, esclavizaron a su gente y amenazaron con destruir todo por lo que habían vivido.

Ficha técnica

Video trailer de la película

Enlaces de descarga

Rip de Bluray

Descargar La Mujer Rey (2022) WEB-DL 1080p Latino




Aportes de DPeliculasHDmega la pass es:dpeliculashdmega.org Aportes de CinemaniaHD la pass es:cinemaniahdd.com
Guardado en : Acción , Drama , Historia

Películas relacionadas

descargar La Mujer Rey (2022) WEB-DL 1080p Latino WEBDL 1080p gratis, La Mujer Rey (2022) WEB-DL 1080p Latino WEBDL mega 1 link, La Mujer Rey (2022) WEB-DL 1080p Latino WEBDL pelicula completa, descargar La Mujer Rey (2022) WEB-DL 1080p Latino WEBDL gratis en mega.

La Mujer Rey (2022) WEB-DL 1080p Latino pelicula full hd, La Mujer Rey (2022) WEB-DL 1080p Latino mega latino, La Mujer Rey (2022) WEB-DL 1080p Latino 4k latino, La Mujer Rey (2022) WEB-DL 1080p Latino pelicula completa, La Mujer Rey (2022) WEB-DL 1080p Latino descargar gratis, descargar La Mujer Rey (2022) WEB-DL 1080p Latino pelicula latino, La Mujer Rey (2022) WEB-DL 1080p Latino 1 link mega, La Mujer Rey (2022) WEB-DL 1080p Latino 1 link google drive, La Mujer Rey (2022) WEB-DL 1080p Latino hd 1080p latino.
Comentarios 0