×

¿Problemas para descargar con Mozilla, EDGE? Deshabilita la opción "Abrir vinculos en una pestaña nueva" tal como lo muestra ésta imagen.

La mujer del diablo (2022) Temporada 1 AMZN WEB-DL 1080p Latino

516 vistas

Información de La mujer del diablo (2022) Temporada 1 AMZN WEB-DL 1080p Latino

Datos de la película

  • Calidad: 1080p
  • Audio: Español Latino AC3 2.0
  • Subtitulos: Español Latino SRT
  • Resolución: 1920x1080
  • Formato: MKV
  • Codec: H.264
  • Encoder: cinemaniahdd
  • Mediainfo: Clic para Mostrar Datos Ver
  • La mujer del diablo T01E01 AMZN WEB-DL 1080p Latino [CNMNHDD].mkv
    Format                      : Matroska
    Format version              : Version 4
    File size                   : 5.11 GiB
    Duration                    : 50 min 44 s
    Overall bit rate            : 14.4 Mb/s
    Movie name                  : La mujer del diablo S01E01 - Capitulo 1 [1080p] - CinemaniaHDD.Net
    Encoded date                : UTC 2022-07-25 00:02:10
    Writing application         : mkvmerge v56.1.0 ('My Friend') 64-bit
    Writing library             : libebml v1.4.2 + libmatroska v1.6.4

    Video
    ID                          : 1
    Format                      : AVC
    Format/Info                 : Advanced Video Codec
    Format profile              : High@L4
    Format settings             : CABAC / 4 Ref Frames
    Format settings, CABAC      : Yes
    Format settings, Reference  : 4 frames
    Codec ID                    : V_MPEG4/ISO/AVC
    Duration                    : 50 min 42 s
    Bit rate                    : 13.8 Mb/s
    Width                       : 1 920 pixels
    Height                      : 1 080 pixels
    Display aspect ratio        : 16:9
    Frame rate mode             : Constant
    Frame rate                  : 24.000 FPS
    Color space                 : YUV
    Chroma subsampling          : 4:2:0
    Bit depth                   : 8 bits
    Scan type                   : Progressive
    Bits/(Pixel*Frame)          : 0.278
    Stream size                 : 4.89 GiB (96%)
    Title                       : CinemaniaHDD
    Default                     : Yes
    Forced                      : No
    Color range                 : Limited
    Color primaries             : BT.709
    Transfer characteristics    : BT.709
    Matrix coefficients         : BT.709

    Audio #1
    ID                          : 2
    Format                      : AC-3
    Format/Info                 : Audio Coding 3
    Commercial name             : Dolby Digital
    Codec ID                    : A_AC3
    Duration                    : 50 min 42 s
    Bit rate mode               : Constant
    Bit rate                    : 384 kb/s
    Channel(s)                  : 2 channels
    Channel layout              : L R
    Sampling rate               : 48.0 kHz
    Frame rate                  : 31.250 FPS (1536 SPF)
    Compression mode            : Lossy
    Stream size                 : 139 MiB (3%)
    Title                       : Español latino [CinemaniaHDD]
    Language                    : Spanish
    Service kind                : Complete Main
    Default                     : Yes
    Forced                      : No

    Audio #2
    ID                          : 3
    Format                      : E-AC-3
    Format/Info                 : Enhanced AC-3
    Commercial name             : Dolby Digital Plus
    Codec ID                    : A_EAC3
    Duration                    : 50 min 42 s
    Bit rate mode               : Constant
    Bit rate                    : 224 kb/s
    Channel(s)                  : 2 channels
    Channel layout              : L R
    Sampling rate               : 48.0 kHz
    Frame rate                  : 31.250 FPS (1536 SPF)
    Compression mode            : Lossy
    Stream size                 : 81.3 MiB (2%)
    Title                       : Español latino / E-AC3 [CinemaniaHDD]
    Language                    : Spanish
    Service kind                : Complete Main
    Default                     : No
    Forced                      : No

    Text
    ID                          : 4
    Format                      : UTF-8
    Codec ID                    : S_TEXT/UTF8
    Codec ID/Info               : UTF-8 Plain Text
    Duration                    : 50 min 34 s
    Bit rate                    : 67 b/s
    Count of elements           : 900
    Stream size                 : 25.1 KiB (0%)
    Title                       : Español latino [CinemaniaHDD]
    Language                    : Spanish
    Default                     : No
    Forced                      : No

     

  • Peso: 5.11 GiB C/U --- 8 CAPITULOS AGREGADOS

Sinopsis

Estamos ante la historia de una obsesión. Amor entre un psicópata y una mujer con síndrome de Estocolmo. Cristo Beltrán se volvió loco por Natalia desde que la vio, no era un capricho temporal.

8 CAPITULOS AGREGADOS

Ficha técnica

  • Titulo original: La mujer del diablo
  • Fecha de lanzamiento: 21-07-2022 (MX)
  • Género: Drama, Series

Video trailer de la película

Enlaces de descarga

Rip de Bluray

Descargar La mujer del diablo (2022) Temporada 1 AMZN WEB-DL 1080p Latino




Aportes de DPeliculasHDmega la pass es:dpeliculashdmega.org Aportes de CinemaniaHD la pass es:cinemaniahdd.com
Guardado en : Drama , Series

Películas relacionadas

descargar La mujer del diablo (2022) Temporada 1 AMZN WEB-DL 1080p Latino 1080p 1080p gratis, La mujer del diablo (2022) Temporada 1 AMZN WEB-DL 1080p Latino 1080p mega 1 link, La mujer del diablo (2022) Temporada 1 AMZN WEB-DL 1080p Latino 1080p serie completa, descargar La mujer del diablo (2022) Temporada 1 AMZN WEB-DL 1080p Latino 1080p gratis en mega.

La mujer del diablo (2022) Temporada 1 AMZN WEB-DL 1080p Latino pelicula full hd, La mujer del diablo (2022) Temporada 1 AMZN WEB-DL 1080p Latino mega latino, La mujer del diablo (2022) Temporada 1 AMZN WEB-DL 1080p Latino 4k latino, La mujer del diablo (2022) Temporada 1 AMZN WEB-DL 1080p Latino pelicula completa, La mujer del diablo (2022) Temporada 1 AMZN WEB-DL 1080p Latino descargar gratis, descargar La mujer del diablo (2022) Temporada 1 AMZN WEB-DL 1080p Latino pelicula latino, La mujer del diablo (2022) Temporada 1 AMZN WEB-DL 1080p Latino 1 link mega, La mujer del diablo (2022) Temporada 1 AMZN WEB-DL 1080p Latino 1 link google drive, La mujer del diablo (2022) Temporada 1 AMZN WEB-DL 1080p Latino hd 1080p latino.
Comentarios 0