×

¿Problemas para descargar con Mozilla, EDGE? Deshabilita la opción "Abrir vinculos en una pestaña nueva" tal como lo muestra ésta imagen.

La muchacha que limpia (2021) Primera Temporada HBO WEB-DL 1080p Latino

716 vistas

Información de La muchacha que limpia (2021) Primera Temporada HBO WEB-DL 1080p Latino

Datos de la película

  • Calidad: 1080p
  • Audio: Español Latino AC3 5.1
  • Subtitulos: No
  • Resolución: 1920x1080
  • Formato: MKV
  • Codec: H.264
  • Encoder: cinemaniahdd
  • Mediainfo: Clic para Mostrar Datos Ver
  • La Muchacha Que Limpia T01E01 HBO WEB-DL 1080p Latino [CNMNHDD].mkv
    Format                      : Matroska
    Format version              : Version 4
    File size                   : 3.14 GiB
    Duration                    : 52 min 8 s
    Overall bit rate mode       : Variable
    Overall bit rate            : 8 628 kb/s
    Movie name                  : La Muchacha Que Limpia T01E01 - CinemaniaHDD.Net
    Encoded date                : UTC 2021-06-29 21:35:04
    Writing application         : mkvmerge v46.0.0 ('No Deeper Escape') 64-bit
    Writing library             : libebml v1.3.10 + libmatroska v1.5.2

    Video
    ID                          : 1
    Format                      : AVC
    Format/Info                 : Advanced Video Codec
    Format profile              : High@L4
    Format settings             : CABAC / 4 Ref Frames
    Format settings, CABAC      : Yes
    Format settings, Reference  : 4 frames
    Codec ID                    : V_MPEG4/ISO/AVC
    Duration                    : 52 min 8 s
    Bit rate mode               : Variable
    Bit rate                    : 8 250 kb/s
    Maximum bit rate            : 12.4 Mb/s
    Width                       : 1 920 pixels
    Height                      : 1 080 pixels
    Display aspect ratio        : 16:9
    Frame rate mode             : Constant
    Frame rate                  : 29.970 (30000/1001) FPS
    Color space                 : YUV
    Chroma subsampling          : 4:2:0
    Bit depth                   : 8 bits
    Scan type                   : Progressive
    Bits/(Pixel*Frame)          : 0.133
    Stream size                 : 3.00 GiB (96%)
    Title                       : CinemaniaHDD
    Writing library             : x264 core 157 r2965 861cec4
    Encoding settings           : cabac=1 / ref=4 / deblock=1:0:0 / analyse=0x3:0x113 / me=hex / subme=7 / psy=1 / psy_rd=1.00:0.00 / mixed_ref=1 / me_range=16 / chroma_me=1 / trellis=1 / 8x8dct=1 / cqm=0 / deadzone=21,11 / fast_pskip=1 / chroma_qp_offset=-2 / threads=34 / lookahead_threads=5 / sliced_threads=0 / nr=0 / decimate=1 / interlaced=0 / bluray_compat=0 / constrained_intra=0 / bframes=3 / b_pyramid=2 / b_adapt=1 / b_bias=0 / direct=1 / weightb=1 / open_gop=0 / weightp=2 / keyint=120 / keyint_min=120 / scenecut=40 / intra_refresh=0 / rc_lookahead=40 / rc=2pass / mbtree=1 / bitrate=8250 / ratetol=1.0 / qcomp=0.60 / qpmin=0 / qpmax=69 / qpstep=4 / cplxblur=20.0 / qblur=0.5 / vbv_maxrate=12375 / vbv_bufsize=6187 / nal_hrd=vbr / filler=0 / ip_ratio=1.40 / aq=1:1.00
    Language                    : Spanish
    Default                     : Yes
    Forced                      : No
    Color range                 : Limited
    Color primaries             : BT.709
    Transfer characteristics    : BT.709
    Matrix coefficients         : BT.709

    Audio
    ID                          : 2
    Format                      : AC-3
    Format/Info                 : Audio Coding 3
    Commercial name             : Dolby Digital
    Codec ID                    : A_AC3
    Duration                    : 52 min 8 s
    Bit rate mode               : Constant
    Bit rate                    : 384 kb/s
    Channel(s)                  : 6 channels
    Channel layout              : L R C LFE Ls Rs
    Sampling rate               : 48.0 kHz
    Frame rate                  : 31.250 FPS (1536 SPF)
    Compression mode            : Lossy
    Stream size                 : 143 MiB (4%)
    Title                       : Español latino [CinemaniaHDD]
    Language                    : Spanish
    Service kind                : Complete Main
    Default                     : Yes
    Forced                      : No

     

  • Peso: 3.14 GiB c/u Aprox ---- 23.2 GiB in 8 Chapters.

Sinopsis

Rosa necesita juntar una importante suma de dinero para operar a su hijo en el extranjero, por ello mantiene dos trabajos: uno en una fábrica de químicos y otro como personal de limpieza en la casa de los Valladares, una de las familias más ricas de la ciudad. Será este empleo el que la ponga en el lugar y momento equivocado, dejándola atrapada en un mundo sórdido, oscuro y peligroso.

Ficha técnica

Video trailer de la película

Enlaces de descarga

Rip de Bluray

Descargar La muchacha que limpia (2021) Primera Temporada HBO WEB-DL 1080p Latino




Aportes de DPeliculasHDmega la pass es:dpeliculashdmega.org Aportes de CinemaniaHD la pass es:cinemaniahdd.com
Guardado en : Crimen , Drama , HBO , HBOMAX , Series

Películas relacionadas

  • Juego de espías (2001) 1080p Latino

    Juego de espías (2001) 1080p Latino

    2001
    Juego de espías (2001) 1080p Latino

    2h 6m 2001

    Descargar Juego de espías (2001) 1080p Latino. Corre el año 1991, y al veterano agente de la CIA Nathan...

    Director: Tony Scott

    Género: Acción

    Actores: Zsolt Zágoni

  • Juego de espías (2001) Full HD 1080p Latino

    Juego de espías (2001) Full HD 1080p Latino

    2001
    Juego de espías (2001) Full HD 1080p Latino

    2h 6m 2001

    Descargar Juego de espías (2001) Full HD 1080p Latino. Corre el año 1991, y al veterano agente de la...

    Director: Tony Scott

    Género: Acción

    Actores: Zsolt Zágoni

  • Juego de espías (2001) REMUX 1080p Latino

    Juego de espías (2001) REMUX 1080p Latino

    2001
    Juego de espías (2001) REMUX 1080p Latino

    1h 55m 2001

    Descargar Juego de espías (2001) REMUX 1080p Latino. El día de su jubilación, el veterano agente de...

    Director: Tony Scott

    Género: Acción

    Actores: Zsolt Zágoni

  • Hombre de familia (2000) REMUX 1080p Latino

    Hombre de familia (2000) REMUX 1080p Latino

    2000
    Hombre de familia (2000) REMUX 1080p Latino

    2h 1m 2000

    Descargar Hombre de familia (2000) REMUX 1080p Latino. Jack Campbell es un egocéntrico broker de Wall...

    Director: Robert Schroer

    Género: Comedia

    Actores: Wass Stevens

descargar La muchacha que limpia (2021) Primera Temporada HBO WEB-DL 1080p Latino 1080p 1080p gratis, La muchacha que limpia (2021) Primera Temporada HBO WEB-DL 1080p Latino 1080p mega 1 link, La muchacha que limpia (2021) Primera Temporada HBO WEB-DL 1080p Latino 1080p serie completa, descargar La muchacha que limpia (2021) Primera Temporada HBO WEB-DL 1080p Latino 1080p gratis en mega.

La muchacha que limpia (2021) Primera Temporada HBO WEB-DL 1080p Latino pelicula full hd, La muchacha que limpia (2021) Primera Temporada HBO WEB-DL 1080p Latino mega latino, La muchacha que limpia (2021) Primera Temporada HBO WEB-DL 1080p Latino 4k latino, La muchacha que limpia (2021) Primera Temporada HBO WEB-DL 1080p Latino pelicula completa, La muchacha que limpia (2021) Primera Temporada HBO WEB-DL 1080p Latino descargar gratis, descargar La muchacha que limpia (2021) Primera Temporada HBO WEB-DL 1080p Latino pelicula latino, La muchacha que limpia (2021) Primera Temporada HBO WEB-DL 1080p Latino 1 link mega, La muchacha que limpia (2021) Primera Temporada HBO WEB-DL 1080p Latino 1 link google drive, La muchacha que limpia (2021) Primera Temporada HBO WEB-DL 1080p Latino hd 1080p latino.
Comentarios 8
  • George - 04 julio, 2021

    Capítulo 5, 6, 7 y 8 sin sonido correcto. Se escucha apenas música o ruidos pero no la voz.

    • CinemaniaHDD - 10 julio, 2021

      Hola, gracias por el aviso ya fue solucionado.

  • Homero - 30 junio, 2021

    Gracias por tu rápida respuesta. Estaré al pendiente.

    • CinemaniaHDD - 30 junio, 2021

      ya esta disponible, subiendo…

  • last_survivor - 29 junio, 2021

    Amigo muchas gracias. Falta el capítulo 6

    • CinemaniaHDD - 30 junio, 2021

      subiendo…

  • Homero - 29 junio, 2021

    Falta el episodio 6.

    • CinemaniaHDD - 29 junio, 2021

      no esta disponible aun en el streaming de donde fue sacado.