×

¿Problemas para descargar con Mozilla, EDGE? Deshabilita la opción "Abrir vinculos en una pestaña nueva" tal como lo muestra ésta imagen.

La montaña entre nosotros (2017) Full 1080p Latino

3.522 vistas

Información de La montaña entre nosotros (2017) Full 1080p Latino

la montana entre nosotros cartel 7726

Datos de la película

  • Calidad: Full 1080p
  • Audio: Español Latino AC3 5.1 BLURAY - Ingles DTS 5.1 BLURAY
  • Subtitulos: Español Latino PGS - Ingles PGS
  • Resolución: 1920X1080p
  • Formato: MKV
  • Codec: H.264
  • Encoder: CinemaniaHD
  • Mediainfo: Clic para Mostrar Datos Ver
  • Format                                   : Matroska
    Format version                           : Version 4 / Version 2
    File size                                : 3.52 GiB
    Duration                                 : 1 h 51 min
    Overall bit rate                         : 4 509 kb/s
    Movie name                               : CinemaniaHDD.com
    Encoded date                             : UTC 2017-12-14 03:48:23 / UTC 2017-12-14T01:10:00Z
    Writing application                      : mkvmerge v15.0.0 ('Duel with the Devil') 64-bit
    Writing library                          : libebml v1.3.5 + libmatroska v1.4.5 / Lavf57.7.2

    Video
    ID                                       : 1
    Format                                   : AVC
    Format/Info                              : Advanced Video Codec
    Format profile                           : High@L4.1
    Format settings                          : CABAC / 4 Ref Frames
    Format settings, CABAC                   : Yes
    Format settings, RefFrames               : 4 frames
    Codec ID                                 : V_MPEG4/ISO/AVC
    Duration                                 : 1 h 51 min
    Bit rate                                 : 2 462 kb/s
    Width                                    : 1 920 pixels
    Height                                   : 1 080 pixels
    Display aspect ratio                     : 16:9
    Frame rate mode                          : Constant
    Frame rate                               : 23.976 (24000/1001) FPS
    Color space                              : YUV
    Chroma subsampling                       : 4:2:0
    Bit depth                                : 8 bits
    Scan type                                : Progressive
    Bits/(Pixel*Frame)                       : 0.050
    Stream size                              : 1.92 GiB (55%)
    Title                                    : La montaña entre nosotros (2017) Full 1080p Latino
    Writing library                          : x264 core 148 r2708 86b7198
    Encoding settings                        : cabac=1 / ref=4 / deblock=1:0:0 / analyse=0x3:0x133 / me=esa / subme=10 / psy=1 / psy_rd=1.00:0.00 / mixed_ref=1 / me_range=24 / chroma_me=1 / trellis=2 / 8x8dct=1 / cqm=0 / deadzone=21,11 / fast_pskip=1 / chroma_qp_offset=-2 / threads=34 / lookahead_threads=5 / sliced_threads=0 / nr=0 / decimate=1 / interlaced=0 / bluray_compat=0 / constrained_intra=0 / bframes=8 / b_pyramid=2 / b_adapt=2 / b_bias=0 / direct=3 / weightb=1 / open_gop=0 / weightp=2 / keyint=240 / keyint_min=24 / scenecut=40 / intra_refresh=0 / rc_lookahead=60 / rc=crf / mbtree=1 / crf=20.0 / qcomp=0.60 / qpmin=0 / qpmax=69 / qpstep=4 / vbv_maxrate=62500 / vbv_bufsize=78125 / crf_max=0.0 / nal_hrd=none / filler=0 / ip_ratio=1.40 / aq=1:1.00
    Language                                 : English
    Default                                  : Yes
    Forced                                   : No
    Color range                              : Limited
    Color primaries                          : BT.709
    Transfer characteristics                 : BT.709
    Matrix coefficients                      : BT.709
    Statistics Tags Issue                    : mkvmerge v15.0.0 ('Duel with the Devil') 64-bit 2017-12-14 03:48:23 / mkvmerge v15.0.0 ('Duel with the Devil') 64-bit 2017-12-14 03:48:23 / UTC 2017-12-14T01:10:00Z
    FromStats_BitRate                        : 2506354
    FromStats_Duration                       : 01:51:49.078000000
    FromStats_FrameCount                     : 160857
    FromStats_StreamSize                     : 2101916000

    Audio #1
    ID                                       : 2
    Format                                   : AC-3
    Format/Info                              : Audio Coding 3
    Format settings, Endianness              : Big
    Codec ID                                 : A_AC3
    Duration                                 : 1 h 51 min
    Bit rate mode                            : Constant
    Bit rate                                 : 448 kb/s
    Channel(s)                               : 6 channels
    Channel positions                        : Front: L C R, Side: L R, LFE
    Sampling rate                            : 48.0 kHz
    Frame rate                               : 31.250 FPS (1536 SPF)
    Bit depth                                : 16 bits
    Compression mode                         : Lossy
    Stream size                              : 358 MiB (10%)
    Language                                 : Spanish
    Service kind                             : Complete Main
    Default                                  : Yes
    Forced                                   : No
    Statistics Tags Issue                    : mkvmerge v15.0.0 ('Duel with the Devil') 64-bit 2017-12-14 03:48:23 / mkvmerge v15.0.0 ('Duel with the Devil') 64-bit 2017-12-14 03:48:23 / UTC 2017-12-14T01:10:00Z
    FromStats_BitRate                        : 448000
    FromStats_Duration                       : 01:51:49.120000000
    FromStats_FrameCount                     : 209660
    FromStats_StreamSize                     : 375710720

    Audio #2
    ID                                       : 3
    Format                                   : DTS
    Format/Info                              : Digital Theater Systems
    Mode                                     : 16
    Format settings, Endianness              : Big
    Codec ID                                 : A_DTS
    Duration                                 : 1 h 51 min
    Bit rate mode                            : Constant
    Bit rate                                 : 1 509 kb/s
    Channel(s)                               : 6 channels
    Channel positions                        : Front: L C R, Side: L R, LFE
    Sampling rate                            : 48.0 kHz
    Frame rate                               : 93.750 FPS (512 SPF)
    Bit depth                                : 24 bits
    Compression mode                         : Lossy
    Stream size                              : 1.18 GiB (33%)
    Language                                 : English
    Default                                  : No
    Forced                                   : No
    Statistics Tags Issue                    : mkvmerge v15.0.0 ('Duel with the Devil') 64-bit 2017-12-14 03:48:23 / mkvmerge v15.0.0 ('Duel with the Devil') 64-bit 2017-12-14 03:48:23 / UTC 2017-12-14T01:10:00Z
    FromStats_BitRate                        : 1508999
    FromStats_Duration                       : 01:51:49.110000000
    FromStats_FrameCount                     : 628979
    FromStats_StreamSize                     : 1265505748

    Text #1
    ID                                       : 4
    Format                                   : PGS
    Muxing mode                              : zlib
    Codec ID                                 : S_HDMV/PGS
    Codec ID/Info                            : Picture based subtitle format used on BDs/HD-DVDs
    Language                                 : Spanish
    Default                                  : No
    Forced                                   : No
    Statistics Tags Issue                    : mkvmerge v15.0.0 ('Duel with the Devil') 64-bit 2017-12-14 03:48:23 / mkvmerge v15.0.0 ('Duel with the Devil') 64-bit 2017-12-14 03:48:23 / UTC 2017-12-14T01:10:00Z
    FromStats_BitRate                        : 19799
    FromStats_Duration                       : 01:51:05.409000000
    FromStats_FrameCount                     : 1966
    FromStats_StreamSize                     : 16496447

    Text #2
    ID                                       : 5
    Format                                   : PGS
    Muxing mode                              : zlib
    Codec ID                                 : S_HDMV/PGS
    Codec ID/Info                            : Picture based subtitle format used on BDs/HD-DVDs
    Language                                 : Spanish
    Default                                  : No
    Forced                                   : No
    Statistics Tags Issue                    : mkvmerge v15.0.0 ('Duel with the Devil') 64-bit 2017-12-14 03:48:23 / mkvmerge v15.0.0 ('Duel with the Devil') 64-bit 2017-12-14 03:48:23 / UTC 2017-12-14T01:10:00Z
    FromStats_BitRate                        : 51058
    FromStats_Duration                       : 01:51:36.899000000
    FromStats_FrameCount                     : 3033
    FromStats_StreamSize                     : 42741414

    Text #3
    ID                                       : 6
    Format                                   : PGS
    Muxing mode                              : zlib
    Codec ID                                 : S_HDMV/PGS
    Codec ID/Info                            : Picture based subtitle format used on BDs/HD-DVDs
    Language                                 : English
    Default                                  : No
    Forced                                   : No
    Statistics Tags Issue                    : mkvmerge v15.0.0 ('Duel with the Devil') 64-bit 2017-12-14 03:48:23 / mkvmerge v15.0.0 ('Duel with the Devil') 64-bit 2017-12-14 03:48:23 / UTC 2017-12-14T01:10:00Z
    FromStats_BitRate                        : 29426
    FromStats_Duration                       : 01:48:17.366000000
    FromStats_FrameCount                     : 2686
    FromStats_StreamSize                     : 23899124

    Menu
    00:00:00.000                             : :Chapter 1
    00:02:58.595                             : :Chapter 2
    00:08:52.282                             : :Chapter 3
    00:13:15.378                             : :Chapter 4
    00:16:21.481                             : :Chapter 5
    00:21:36.253                             : :Chapter 6
    00:26:51.985                             : :Chapter 7
    00:31:53.370                             : :Chapter 8
    00:38:56.084                             : :Chapter 9
    00:43:45.039                             : :Chapter 10
    00:51:04.311                             : :Chapter 11
    00:57:28.737                             : :Chapter 12
    01:01:22.721                             : :Chapter 13
    01:04:39.292                             : :Chapter 14
    01:07:41.057                             : :Chapter 15
    01:11:06.429                             : :Chapter 16
    01:14:56.534                             : :Chapter 17
    01:19:15.125                             : :Chapter 18
    01:23:48.398                             : :Chapter 19
    01:27:52.476                             : :Chapter 20
    01:32:13.570                             : :Chapter 21
    01:35:41.653                             : :Chapter 22
    01:41:48.269                             : :Chapter 23
    01:45:21.982                             : :Chapter 24

  • Peso: 3.52 GiB

Sinopsis

Abandonados a su suerte después de un trágico accidente aéreo, Ben Bass (Idris Elba) y Alex Martin (Kate Winslet) son dos desconocidos que se enfrentarán al mayor reto de sus vidas: la supervivencia. Incomunicados y con Alex herida en una pierna, la pareja se verá obligada a confiar el uno en el otro, para sobrevivir a las inclemencias en una remota montaña cubierta de nieve. Cuando se den cuenta de que la ayuda no les va a llegar, emprenderán un complicado viaje a través de cientos de millas de tierras inhabitadas, alentándose mutuamente para soportar las dificultades, y dando origen a una inesperada atracción.

La montaña entre nosotros es una adaptación del best-seller homónimo escrito por Charles Martin, que dirige Hany Abu-Assad (Idol, Omar, Paradise Now). Sus protagonistas son Kate Winslet (Steve Jobs, La modista) y Idris Elba (La Torre Oscura, Vengadores: La era de Ultrón). Completan el reparto Beau Bridges (Masters of Sex) y Dermot Mulroney (Mozart in the Jungle).

Ficha técnica

Video trailer de la película

Enlaces de descarga

Rip de Bluray

Descargar La montaña entre nosotros (2017) Full 1080p Latino




Aportes de DPeliculasHDmega la pass es:dpeliculashdmega.org Aportes de CinemaniaHD la pass es:cinemaniahdd.com Aportes recientes:cinemaniahdd.net

Películas relacionadas

descargar La montaña entre nosotros (2017) Full 1080p Latino Full 1080p 1080p gratis, La montaña entre nosotros (2017) Full 1080p Latino Full 1080p mega 1 link, La montaña entre nosotros (2017) Full 1080p Latino Full 1080p pelicula completa, descargar La montaña entre nosotros (2017) Full 1080p Latino Full 1080p gratis en mega.

La montaña entre nosotros (2017) Full 1080p Latino pelicula full hd, La montaña entre nosotros (2017) Full 1080p Latino mega latino, La montaña entre nosotros (2017) Full 1080p Latino 4k latino, La montaña entre nosotros (2017) Full 1080p Latino pelicula completa, La montaña entre nosotros (2017) Full 1080p Latino descargar gratis, descargar La montaña entre nosotros (2017) Full 1080p Latino pelicula latino, La montaña entre nosotros (2017) Full 1080p Latino 1 link mega, La montaña entre nosotros (2017) Full 1080p Latino 1 link google drive, La montaña entre nosotros (2017) Full 1080p Latino hd 1080p latino.
Comentarios 11