×

¿Problemas para descargar con Mozilla, EDGE? Deshabilita la opción "Abrir vinculos en una pestaña nueva" tal como lo muestra ésta imagen.

La Mentira Original (2009) REMUX 1080p Latino

859 vistas

Información de La Mentira Original (2009) REMUX 1080p Latino

increible pero falso 55105 poster

Datos de la película

  • Calidad: Full 1080p
  • Audio: Se especifica abajo de la Sinopsis
  • Subtitulos: Español Latino PGS - Ingles PGS
  • Resolución: 1920x1080p
  • Formato: MKV
  • Codec: H.264
  • Encoder: CinemaniaHD
  • Mediainfo: Clic para Mostrar Datos Ver
  • La Mentira Original (2009) REMUX 1080p Latino-CMHDD.mkv
    Format                      : Matroska
    Format version              : Version 4
    File size                   : 27.0 GiB
    Duration                    : 1 h 39 min
    Overall bit rate mode       : Variable
    Overall bit rate            : 38.7 Mb/s
    Movie name                  : CinemaniaHDD.Net
    Encoded date                : UTC 2019-07-16 18:02:04
    Writing application         : mkvmerge v35.0.0 ('All The Love In The World') 64-bit
    Writing library             : libebml v1.3.9 + libmatroska v1.5.2
    Attachments                 : CINEMANIAHD.png

    Video
    ID                          : 1
    Format                      : VC-1
    Format profile              : Advanced@L3
    Codec ID                    : V_MS/VFW/FOURCC / WVC1
    Codec ID/Hint               : Microsoft
    Duration                    : 1 h 39 min
    Bit rate                    : 34.4 Mb/s
    Width                       : 1 920 pixels
    Height                      : 1 080 pixels
    Display aspect ratio        : 16:9
    Frame rate mode             : Constant
    Frame rate                  : 23.976 (24000/1001) FPS
    Color space                 : YUV
    Chroma subsampling          : 4:2:0
    Bit depth                   : 8 bits
    Scan type                   : Progressive
    Compression mode            : Lossy
    Bits/(Pixel*Frame)          : 0.691
    Stream size                 : 23.9 GiB (89%)
    Title                       : Full HD1080p [REMUX]
    Default                     : Yes
    Forced                      : No

    Audio #1
    ID                          : 2
    Format                      : AC-3
    Format/Info                 : Audio Coding 3
    Commercial name             : Dolby Digital
    Codec ID                    : A_AC3
    Duration                    : 1 h 39 min
    Bit rate mode               : Constant
    Bit rate                    : 640 kb/s
    Channel(s)                  : 6 channels
    Channel layout              : L R C LFE Ls Rs
    Sampling rate               : 48.0 kHz
    Frame rate                  : 31.250 FPS (1536 SPF)
    Bit depth                   : 16 bits
    Compression mode            : Lossy
    Stream size                 : 457 MiB (2%)
    Title                       : AC3_5.1_Web_Esp
    Language                    : Spanish
    Service kind                : Complete Main
    Default                     : Yes
    Forced                      : Yes

    Audio #2
    ID                          : 3
    Format                      : DTS XLL
    Format/Info                 : Digital Theater Systems
    Commercial name             : DTS-HD Master Audio
    Codec ID                    : A_DTS
    Duration                    : 1 h 39 min
    Bit rate mode               : Variable
    Bit rate                    : 3 691 kb/s
    Channel(s)                  : 6 channels
    Channel layout              : C L R Ls Rs LFE
    Sampling rate               : 48.0 kHz
    Frame rate                  : 93.750 FPS (512 SPF)
    Bit depth                   : 24 bits
    Compression mode            : Lossless
    Stream size                 : 2.57 GiB (10%)
    Title                       : DTS-HD_5.1_Bluray_Eng
    Language                    : English
    Default                     : No
    Forced                      : No

    Text #1
    ID                          : 4
    Format                      : PGS
    Muxing mode                 : zlib
    Codec ID                    : S_HDMV/PGS
    Codec ID/Info               : Picture based subtitle format used on BDs/HD-DVDs
    Duration                    : 1 h 33 min
    Bit rate                    : 51.8 kb/s
    Count of elements           : 2954
    Stream size                 : 34.7 MiB (0%)
    Title                       : Sub_Esp [PGS]
    Language                    : Spanish
    Default                     : No
    Forced                      : No

    Text #2
    ID                          : 5
    Format                      : PGS
    Muxing mode                 : zlib
    Codec ID                    : S_HDMV/PGS
    Codec ID/Info               : Picture based subtitle format used on BDs/HD-DVDs
    Duration                    : 1 h 33 min
    Bit rate                    : 53.4 kb/s
    Count of elements           : 3126
    Stream size                 : 35.8 MiB (0%)
    Title                       : Sub_Eng [PGS]
    Language                    : English
    Default                     : No
    Forced                      : No

    Text #3
    ID                          : 6
    Format                      : UTF-8
    Codec ID                    : S_TEXT/UTF8
    Codec ID/Info               : UTF-8 Plain Text
    Duration                    : 1 h 33 min
    Bit rate                    : 75 b/s
    Count of elements           : 1477
    Stream size                 : 51.6 KiB (0%)
    Title                       : Sub_Esp
    Language                    : Spanish
    Default                     : No
    Forced                      : No

    Text #4
    ID                          : 7
    Format                      : UTF-8
    Codec ID                    : S_TEXT/UTF8
    Codec ID/Info               : UTF-8 Plain Text
    Duration                    : 1 h 33 min
    Bit rate                    : 78 b/s
    Count of elements           : 1457
    Stream size                 : 53.8 KiB (0%)
    Title                       : Sub_Eng
    Language                    : English
    Default                     : No
    Forced                      : No

    Menu
    00:00:00.000                : en:Absolute Truth
    00:04:34.983                : en:Way Out of Your League
    00:12:40.801                : en:On With Your Work
    00:16:21.981                : en:Always Hated You
    00:20:36.944                : en:The First
    00:25:33.698                : en:Unless We Have Sex
    00:27:45.747                : en:Can't Afford My Bribe
    00:30:21.778                : en:We Have A Winner
    00:32:20.104                : en:Encouraging Words
    00:35:59.949                : en:Best Screenplay Ever
    00:42:50.568                : en:Half the Genetic Code
    00:45:53.792                : en:After You Die
    00:52:40.740                : en:Tell What You Know
    00:56:24.714                : en:Revealed Word
    01:03:33.184                : en:Mansions For Everyone
    01:05:40.770                : en:Look Beyond
    01:10:28.182                : en:Clipped Coupon
    01:14:40.058                : en:Near-Perfect Match
    01:20:58.061                : en:Still a Loser
    01:24:56.758                : en:So Much More
    01:27:08.014                : en:What the Man Wants
    01:29:02.337                : en:What the Woman Wants
    01:34:30.665                : en:End Credits

  • Peso: 27.0 GiB

Sinopsis

Descargar La Mentira Original [La Invencion De La Mentira] (2009) REMUX 1080p Latino. En un mundo donde no existe la mentira, ni siquiera como concepto, donde todos dicen siempre la verdad sin pensar en las consecuencias, Mark Bellison (Ricky Gervais), un perdedor nato, desarrolla inesperadamente la capacidad de mentir y pronto se da cuenta de que la falta de sinceridad tiene grandes ventajas. En ese tipo de sociedad, Mark no tiene problemas para prosperar y hacer fortuna inventándose historias que todo el mundo cree a pies juntillas.

!!!Aporte Exclusivo de CinemaniaHD!!!
Audio Español Latino AC3 5.1 WebDL – Ingles DTS-HD 5.1 Bluray

Ficha técnica

Video trailer de la película

Enlaces de descarga

Rip de Bluray

Descargar La Mentira Original (2009) REMUX 1080p Latino




Aportes de DPeliculasHDmega la pass es:dpeliculashdmega.org Aportes de CinemaniaHD la pass es:cinemaniahdd.com Aportes recientes:cinemaniahdd.net
Guardado en : Comedia , Fantasía , Remux , Romance

Películas relacionadas

descargar La Mentira Original (2009) REMUX 1080p Latino Full 1080p 1080p gratis, La Mentira Original (2009) REMUX 1080p Latino Full 1080p mega 1 link, La Mentira Original (2009) REMUX 1080p Latino Full 1080p pelicula completa, descargar La Mentira Original (2009) REMUX 1080p Latino Full 1080p gratis en mega.

La Mentira Original (2009) REMUX 1080p Latino pelicula full hd, La Mentira Original (2009) REMUX 1080p Latino mega latino, La Mentira Original (2009) REMUX 1080p Latino 4k latino, La Mentira Original (2009) REMUX 1080p Latino pelicula completa, La Mentira Original (2009) REMUX 1080p Latino descargar gratis, descargar La Mentira Original (2009) REMUX 1080p Latino pelicula latino, La Mentira Original (2009) REMUX 1080p Latino 1 link mega, La Mentira Original (2009) REMUX 1080p Latino 1 link google drive, La Mentira Original (2009) REMUX 1080p Latino hd 1080p latino.
Comentarios 0