×

¿Problemas para descargar con Mozilla, EDGE? Deshabilita la opción "Abrir vinculos en una pestaña nueva" tal como lo muestra ésta imagen.

La máscara (1994) REMUX 1080p Latino – CMHDD

436 vistas

Información de La máscara (1994) REMUX 1080p Latino – CMHDD

Datos de la película

  • Calidad:
  • Audio: Se especifica abajo de la Sinopsis
  • Subtitulos: Español Latino SRT
  • Resolución: 1920x1080p
  • Formato: MKV
  • Codec: H.264
  • Encoder: Dracarys
  • Mediainfo: Clic para Mostrar Datos Ver
  • Format                      : Matroska
    Format version              : Version 4
    File size                   : 15.4 GiB
    Duration                    : 1 h 41 min
    Overall bit rate mode       : Variable
    Overall bit rate            : 21.8 Mb/s
    Movie name                  : La máscara (1994) REMUX 1080p Latino - CMHDD
    Encoded date                : UTC 2020-06-28 22:07:58
    Writing application         : mkvmerge v46.0.0 ('No Deeper Escape') 64-bit
    Writing library             : libebml v1.3.10 + libmatroska v1.5.2

    Video
    ID                          : 1
    Format                      : VC-1
    Format profile              : Advanced@L3
    Codec ID                    : V_MS/VFW/FOURCC / WVC1
    Codec ID/Hint               : Microsoft
    Duration                    : 1 h 41 min
    Bit rate                    : 19.0 Mb/s
    Width                       : 1 920 pixels
    Height                      : 1 080 pixels
    Display aspect ratio        : 16:9
    Frame rate mode             : Constant
    Frame rate                  : 23.976 (24000/1001) FPS
    Color space                 : YUV
    Chroma subsampling          : 4:2:0
    Bit depth                   : 8 bits
    Scan type                   : Progressive
    Compression mode            : Lossy
    Bits/(Pixel*Frame)          : 0.383
    Stream size                 : 13.5 GiB (87%)
    Default                     : Yes
    Forced                      : No

    Audio #1
    ID                          : 2
    Format                      : AC-3
    Format/Info                 : Audio Coding 3
    Commercial name             : Dolby Digital
    Codec ID                    : A_AC3
    Duration                    : 1 h 41 min
    Bit rate mode               : Constant
    Bit rate                    : 448 kb/s
    Channel(s)                  : 6 channels
    Channel layout              : L R C LFE Ls Rs
    Sampling rate               : 48.0 kHz
    Frame rate                  : 31.250 FPS (1536 SPF)
    Compression mode            : Lossy
    Stream size                 : 324 MiB (2%)
    Language                    : Spanish
    Service kind                : Complete Main
    Default                     : Yes
    Forced                      : No

    Audio #2
    ID                          : 3
    Format                      : MLP FBA
    Format/Info                 : Meridian Lossless Packing FBA
    Commercial name             : Dolby TrueHD
    Codec ID                    : A_TRUEHD
    Duration                    : 1 h 41 min
    Bit rate mode               : Variable
    Bit rate                    : 1 573 kb/s
    Maximum bit rate            : 3 267 kb/s
    Channel(s)                  : 6 channels
    Channel layout              : L R C LFE Ls Rs
    Sampling rate               : 48.0 kHz
    Frame rate                  : 1 200.000 FPS (40 SPF)
    Compression mode            : Lossless
    Stream size                 : 1.11 GiB (7%)
    Language                    : English
    Default                     : No
    Forced                      : No

    Audio #3
    ID                          : 4
    Format                      : AC-3
    Format/Info                 : Audio Coding 3
    Commercial name             : Dolby Digital
    Codec ID                    : A_AC3
    Duration                    : 1 h 41 min
    Bit rate mode               : Constant
    Bit rate                    : 640 kb/s
    Channel(s)                  : 6 channels
    Channel layout              : L R C LFE Ls Rs
    Sampling rate               : 48.0 kHz
    Frame rate                  : 31.250 FPS (1536 SPF)
    Compression mode            : Lossy
    Stream size                 : 463 MiB (3%)
    Language                    : English
    Service kind                : Complete Main
    Default                     : No
    Forced                      : No

    Text #1
    ID                          : 5
    Format                      : PGS
    Muxing mode                 : zlib
    Codec ID                    : S_HDMV/PGS
    Codec ID/Info               : Picture based subtitle format used on BDs/HD-DVDs
    Duration                    : 1 h 33 min
    Bit rate                    : 39.9 kb/s
    Count of elements           : 2116
    Stream size                 : 26.7 MiB (0%)
    Language                    : Spanish
    Default                     : No
    Forced                      : No

    Text #2
    ID                          : 6
    Format                      : UTF-8
    Codec ID                    : S_TEXT/UTF8
    Codec ID/Info               : UTF-8 Plain Text
    Duration                    : 1 h 33 min
    Bit rate                    : 42 b/s
    Count of elements           : 1058
    Stream size                 : 29.4 KiB (0%)
    Language                    : Spanish
    Default                     : No
    Forced                      : No

  • Peso: 15.4 GiB

Sinopsis

Stanley es un ingenuo empleado de banca incapaz de enterarse de cuándo se aprovechan de él, al que su jefe mangonea, al que su casera humilla, y al que solamente su perro parece ser capaz de aguantar. Charlie, un amigo suyo, le invita a ir al cabaret Coco Bongo para intentar estimularle y conseguir que espabile. Pero antes de que eso ocurra, aparece la bella Tina Carlyle, que entra en el banco para hablar con Stanley y de paso fotografiar la caja fuerte con una mini cámara. Es entonces cuando Stanley encuentra una máscara que le da grandes poderes, pero que también le quita todos sus miedos: ahora es libre de actuar como quiera..

 

Audios: Latino AC3 5.1 Editado – Ingles-AC3 5.1 BluRay + TrueHD 5.1

Ficha técnica

Video trailer de la película

Enlaces de descarga

Rip de Bluray

Descargar La máscara (1994) REMUX 1080p Latino – CMHDD




Aportes de DPeliculasHDmega la pass es:dpeliculashdmega.org Aportes de CinemaniaHD la pass es:cinemaniahdd.com
Guardado en : Comedia , Crimen , Fantasía , Remux , Romance

Películas relacionadas

  • Corazón de tinta (2008) Full HD 1080p Latino

    Corazón de tinta (2008) Full HD 1080p Latino

    2008
    Corazón de tinta (2008) Full HD 1080p Latino

    1h 46m 2008

    Descargar Corazón de tinta (2008) Full HD 1080p Latino. Mortimer “Mo” Folchart y su hija de 12 años,...

    Director: Sharon Mansfield

    Género: Aventura

    Actores: Terry Cavanagh

  • Corazón de tinta (2008) REMUX 1080p Latino

    Corazón de tinta (2008) REMUX 1080p Latino

    2008
    Corazón de tinta (2008) REMUX 1080p Latino

    1h 46m 2008

    Descargar Corazón de tinta (2008) REMUX 1080p Latino. Mortimer “Mo” Folchart y su hija de 12 años,...

    Director: Sharon Mansfield

    Género: Aventura

    Actores: Tereza Srbová

  • Juego de espías (2001) 1080p Latino

    Juego de espías (2001) 1080p Latino

    2001
    Juego de espías (2001) 1080p Latino

    2h 6m 2001

    Descargar Juego de espías (2001) 1080p Latino. Corre el año 1991, y al veterano agente de la CIA Nathan...

    Director: Tony Scott

    Género: Acción

    Actores: Zsolt Zágoni

  • Juego de espías (2001) Full HD 1080p Latino

    Juego de espías (2001) Full HD 1080p Latino

    2001
    Juego de espías (2001) Full HD 1080p Latino

    2h 6m 2001

    Descargar Juego de espías (2001) Full HD 1080p Latino. Corre el año 1991, y al veterano agente de la...

    Director: Tony Scott

    Género: Acción

    Actores: Zsolt Zágoni

  • Juego de espías (2001) REMUX 1080p Latino

    Juego de espías (2001) REMUX 1080p Latino

    2001
    Juego de espías (2001) REMUX 1080p Latino

    1h 55m 2001

    Descargar Juego de espías (2001) REMUX 1080p Latino. El día de su jubilación, el veterano agente de...

    Director: Tony Scott

    Género: Acción

    Actores: Zsolt Zágoni

descargar La máscara (1994) REMUX 1080p Latino – CMHDD 1080p gratis, La máscara (1994) REMUX 1080p Latino – CMHDD mega 1 link, La máscara (1994) REMUX 1080p Latino – CMHDD pelicula completa, descargar La máscara (1994) REMUX 1080p Latino – CMHDD gratis en mega.

La máscara (1994) REMUX 1080p Latino – CMHDD pelicula full hd, La máscara (1994) REMUX 1080p Latino – CMHDD mega latino, La máscara (1994) REMUX 1080p Latino – CMHDD 4k latino, La máscara (1994) REMUX 1080p Latino – CMHDD pelicula completa, La máscara (1994) REMUX 1080p Latino – CMHDD descargar gratis, descargar La máscara (1994) REMUX 1080p Latino – CMHDD pelicula latino, La máscara (1994) REMUX 1080p Latino – CMHDD 1 link mega, La máscara (1994) REMUX 1080p Latino – CMHDD 1 link google drive, La máscara (1994) REMUX 1080p Latino – CMHDD hd 1080p latino.
Comentarios 1
  • chiki - 18 julio, 2020

    Excelente, muchas gracias por la peli