×

¿Problemas para descargar con Mozilla, EDGE? Deshabilita la opción "Abrir vinculos en una pestaña nueva" tal como lo muestra ésta imagen.

La máscara (1994) HD 1080p Latino – CMHDD

418 vistas

Información de La máscara (1994) HD 1080p Latino – CMHDD

Datos de la película

  • Calidad: 1080p
  • Audio: Español Latino AC3 2.0
  • Subtitulos: Español Latino SRT
  • Resolución: 1920x1080p
  • Formato: MKV
  • Codec: H.264
  • Encoder: Dracarys
  • Mediainfo: Clic para Mostrar Datos Ver
  • Format                      : Matroska
    Format version              : Version 4
    File size                   : 3.21 GiB
    Duration                    : 1 h 41 min
    Overall bit rate            : 4 535 kb/s
    Movie name                  : La máscara (1994) HD 1080p Latino - CMHDD
    Encoded date                : UTC 2020-06-28 22:10:19
    Writing application         : mkvmerge v46.0.0 ('No Deeper Escape') 64-bit
    Writing library             : libebml v1.3.10 + libmatroska v1.5.2

    Video
    ID                          : 1
    Format                      : AVC
    Format/Info                 : Advanced Video Codec
    Format profile              : High@L4.1
    Format settings             : CABAC / 4 Ref Frames
    Format settings, CABAC      : Yes
    Format settings, Reference  : 4 frames
    Codec ID                    : V_MPEG4/ISO/AVC
    Duration                    : 1 h 41 min
    Bit rate                    : 3 500 kb/s
    Width                       : 1 920 pixels
    Height                      : 1 080 pixels
    Display aspect ratio        : 16:9
    Frame rate mode             : Constant
    Frame rate                  : 23.976 (24000/1001) FPS
    Color space                 : YUV
    Chroma subsampling          : 4:2:0
    Bit depth                   : 8 bits
    Scan type                   : Progressive
    Bits/(Pixel*Frame)          : 0.071
    Stream size                 : 2.44 GiB (76%)
    Writing library             : x264 core 157 r2935 545de2f
    Encoding settings           : cabac=1 / ref=4 / deblock=1:0:0 / analyse=0x3:0x113 / me=hex / subme=8 / psy=1 / psy_rd=1.00:0.00 / mixed_ref=1 / me_range=16 / chroma_me=1 / trellis=2 / 8x8dct=1 / cqm=0 / deadzone=21,11 / fast_pskip=1 / chroma_qp_offset=-2 / threads=24 / lookahead_threads=4 / sliced_threads=0 / nr=0 / decimate=1 / interlaced=0 / bluray_compat=0 / constrained_intra=0 / bframes=3 / b_pyramid=2 / b_adapt=1 / b_bias=0 / direct=3 / weightb=1 / open_gop=0 / weightp=2 / keyint=240 / keyint_min=24 / scenecut=40 / intra_refresh=0 / rc_lookahead=50 / rc=abr / mbtree=1 / bitrate=3500 / ratetol=1.0 / qcomp=0.60 / qpmin=0 / qpmax=69 / qpstep=4 / vbv_maxrate=62500 / vbv_bufsize=78125 / nal_hrd=none / filler=0 / ip_ratio=1.40 / aq=1:1.00
    Default                     : Yes
    Forced                      : No
    Color range                 : Limited
    Color primaries             : BT.709
    Transfer characteristics    : BT.709
    Matrix coefficients         : BT.709

    Audio #1
    ID                          : 2
    Format                      : AC-3
    Format/Info                 : Audio Coding 3
    Commercial name             : Dolby Digital
    Codec ID                    : A_AC3
    Duration                    : 1 h 41 min
    Bit rate mode               : Constant
    Bit rate                    : 448 kb/s
    Channel(s)                  : 6 channels
    Channel layout              : L R C LFE Ls Rs
    Sampling rate               : 48.0 kHz
    Frame rate                  : 31.250 FPS (1536 SPF)
    Compression mode            : Lossy
    Stream size                 : 324 MiB (10%)
    Language                    : Spanish
    Service kind                : Complete Main
    Default                     : Yes
    Forced                      : No

    Audio #2
    ID                          : 3
    Format                      : AC-3
    Format/Info                 : Audio Coding 3
    Commercial name             : Dolby Digital
    Codec ID                    : A_AC3
    Duration                    : 1 h 41 min
    Bit rate mode               : Constant
    Bit rate                    : 640 kb/s
    Channel(s)                  : 6 channels
    Channel layout              : L R C LFE Ls Rs
    Sampling rate               : 48.0 kHz
    Frame rate                  : 31.250 FPS (1536 SPF)
    Compression mode            : Lossy
    Stream size                 : 463 MiB (14%)
    Language                    : English
    Service kind                : Complete Main
    Default                     : No
    Forced                      : No

    Text
    ID                          : 4
    Format                      : UTF-8
    Codec ID                    : S_TEXT/UTF8
    Codec ID/Info               : UTF-8 Plain Text
    Duration                    : 1 h 33 min
    Bit rate                    : 42 b/s
    Count of elements           : 1058
    Stream size                 : 29.4 KiB (0%)
    Language                    : Spanish
    Default                     : No
    Forced                      : No

    Menu
    00:00:00.000                : :Chapter 1
    00:03:38.343                : :Chapter 2
    00:06:59.377                : :Chapter 3
    00:09:28.693                : :Chapter 4
    00:12:18.029                : :Chapter 5
    00:14:55.770                : :Chapter 6
    00:17:48.609                : :Chapter 7
    00:22:53.873                : :Chapter 8
    00:26:33.509                : :Chapter 9
    00:30:34.624                : :Chapter 10
    00:33:57.369                : :Chapter 11
    00:37:26.035                : :Chapter 12
    00:39:43.256                : :Chapter 13
    00:42:54.614                : :Chapter 14
    00:46:03.052                : :Chapter 15
    00:48:35.079                : :Chapter 16
    00:52:56.465                : :Chapter 17
    00:55:48.053                : :Chapter 18
    01:00:47.310                : :Chapter 19
    01:04:04.716                : :Chapter 20
    01:09:00.720                : :Chapter 21
    01:16:01.182                : :Chapter 22
    01:19:52.621                : :Chapter 23
    01:26:11.833                : :Chapter 24
    01:28:49.741                : :Chapter 25
    01:32:57.655                : :Chapter 26

  • Peso: 3.21 GiB

Sinopsis

Stanley es un ingenuo empleado de banca incapaz de enterarse de cuándo se aprovechan de él, al que su jefe mangonea, al que su casera humilla, y al que solamente su perro parece ser capaz de aguantar. Charlie, un amigo suyo, le invita a ir al cabaret Coco Bongo para intentar estimularle y conseguir que espabile. Pero antes de que eso ocurra, aparece la bella Tina Carlyle, que entra en el banco para hablar con Stanley y de paso fotografiar la caja fuerte con una mini cámara. Es entonces cuando Stanley encuentra una máscara que le da grandes poderes, pero que también le quita todos sus miedos: ahora es libre de actuar como quiera..

 

Audios: Latino AC3 5.1 Editado – Ingles-AC3 5.1 BluRay

Ficha técnica

Video trailer de la película

Enlaces de descarga

Rip de Bluray

Descargar La máscara (1994) HD 1080p Latino – CMHDD




Aportes de DPeliculasHDmega la pass es:dpeliculashdmega.org Aportes de CinemaniaHD la pass es:cinemaniahdd.com
Guardado en : Comedia , Crimen , Fantasía , HD 1080p , Romance

Películas relacionadas

descargar La máscara (1994) HD 1080p Latino – CMHDD 1080p 1080p gratis, La máscara (1994) HD 1080p Latino – CMHDD 1080p mega 1 link, La máscara (1994) HD 1080p Latino – CMHDD 1080p pelicula completa, descargar La máscara (1994) HD 1080p Latino – CMHDD 1080p gratis en mega.

La máscara (1994) HD 1080p Latino – CMHDD pelicula full hd, La máscara (1994) HD 1080p Latino – CMHDD mega latino, La máscara (1994) HD 1080p Latino – CMHDD 4k latino, La máscara (1994) HD 1080p Latino – CMHDD pelicula completa, La máscara (1994) HD 1080p Latino – CMHDD descargar gratis, descargar La máscara (1994) HD 1080p Latino – CMHDD pelicula latino, La máscara (1994) HD 1080p Latino – CMHDD 1 link mega, La máscara (1994) HD 1080p Latino – CMHDD 1 link google drive, La máscara (1994) HD 1080p Latino – CMHDD hd 1080p latino.
Comentarios 0