×

¿Problemas para descargar con Mozilla, EDGE? Deshabilita la opción "Abrir vinculos en una pestaña nueva" tal como lo muestra ésta imagen.

La Marca del Demonio (2020) WEB-DL 1080p Latino

1.632 vistas

Información de La Marca del Demonio (2020) WEB-DL 1080p Latino

Datos de la película

  • Calidad: WEBDL
  • Audio: Español Latino AC3 5.1
  • Subtitulos: Español Latino SRT
  • Resolución: 1920x800
  • Formato: MKV
  • Codec: H.264
  • Encoder: cinemaniahdd
  • Mediainfo: Clic para Mostrar Datos Ver
  • La Marca del Demonio (2020) WEB-DL 1080p Latino.mkv
    Format                      : Matroska
    Format version              : Version 4
    File size                   : 3.41 GiB
    Duration                    : 1 h 20 min
    Overall bit rate            : 6 041 kb/s
    Movie name                  : La Marca del Demonio (2020) - CinemaniaHDD.Net
    Encoded date                : UTC 2020-03-13 09:10:40
    Writing application         : mkvmerge v42.0.0 ('Overtime') 64-bit
    Writing library             : libebml v1.3.10 + libmatroska v1.5.2

    Video
    ID                          : 1
    Format                      : AVC
    Format/Info                 : Advanced Video Codec
    Format profile              : High@L4
    Format settings             : CABAC / 4 Ref Frames
    Format settings, CABAC      : Yes
    Format settings, ReFrames   : 4 frames
    Codec ID                    : V_MPEG4/ISO/AVC
    Duration                    : 1 h 20 min
    Bit rate mode               : Constant
    Bit rate                    : 5 399 kb/s
    Nominal bit rate            : 10 000 kb/s
    Width                       : 1 920 pixels
    Height                      : 800 pixels
    Display aspect ratio        : 2.40:1
    Frame rate mode             : Constant
    Frame rate                  : 23.976 (24000/1001) FPS
    Color space                 : YUV
    Chroma subsampling          : 4:2:0
    Bit depth                   : 8 bits
    Scan type                   : Progressive
    Bits/(Pixel*Frame)          : 0.147
    Stream size                 : 3.05 GiB (89%)
    Title                       : CinemaniaHDD
    Default                     : Yes
    Forced                      : No
    Color range                 : Limited
    Color primaries             : BT.709
    Transfer characteristics    : BT.709
    Matrix coefficients         : BT.709

    Audio
    ID                          : 2
    Format                      : AC-3
    Format/Info                 : Audio Coding 3
    Commercial name             : Dolby Digital
    Codec ID                    : A_AC3
    Duration                    : 1 h 20 min
    Bit rate mode               : Constant
    Bit rate                    : 640 kb/s
    Channel(s)                  : 6 channels
    Channel layout              : L R C LFE Ls Rs
    Sampling rate               : 48.0 kHz
    Frame rate                  : 31.250 FPS (1536 SPF)
    Bit depth                   : 16 bits
    Compression mode            : Lossy
    Stream size                 : 370 MiB (11%)
    Title                       : Español latino [CinemaniaHDD]
    Language                    : Spanish
    Service kind                : Complete Main
    Default                     : Yes
    Forced                      : No

    Text
    ID                          : 3
    Format                      : UTF-8
    Codec ID                    : S_TEXT/UTF8
    Codec ID/Info               : UTF-8 Plain Text
    Duration                    : 1 h 15 min
    Bit rate                    : 41 b/s
    Count of elements           : 937
    Stream size                 : 22.6 KiB (0%)
    Title                       : Español latino [CinemaniaHDD]
    Language                    : Spanish
    Default                     : No
    Forced                      : No

     

  • Peso: 3.41 GiB

Sinopsis

Un sacerdote exorcista conoce a una familia que tiene una hija que es perseguida por un demonio.

Ficha técnica

  • Titulo original: La marca del demonio
  • Fecha de lanzamiento: 03-01-2020 (Mexico)
  • Director: Diego Cohen
  • Género: Terror

Video trailer de la película

Enlaces de descarga

Rip de Bluray

Descargar La Marca del Demonio (2020) WEB-DL 1080p Latino




Aportes de DPeliculasHDmega la pass es:dpeliculashdmega.org Aportes de CinemaniaHD la pass es:cinemaniahdd.com
Guardado en : Terror

Películas relacionadas

  • Alarido (2022) HD 1080p Latino

    Alarido (2022) HD 1080p Latino

    2022
    Alarido (2022) HD 1080p Latino

    1h 29m 2022

    Descargar Alarido (2022) HD 1080p Latino. Una joven madre soltera es cautiva junto con sus dos hijos...

    Director: D.J. Caruso

    Género: HD 1080p

    Actores: Vincent Gallo

  • Alarido (2022) PLACEBO Full HD 1080p Latino

    Alarido (2022) PLACEBO Full HD 1080p Latino

    2022
    Alarido (2022) PLACEBO Full HD 1080p Latino

    1h 29m 2022

    Descargar Alarido (2022) PLACEBO Full HD 1080p Latino. Una joven madre soltera es cautiva junto con sus...

    Director: D.J. Caruso

    Género: FULL 1080p Plateadas

    Actores: Vincent Gallo

  • Alarido (2022) REMUX 1080p Latino

    Alarido (2022) REMUX 1080p Latino

    2022
    Alarido (2022) REMUX 1080p Latino

    1h 29m 2022

    Descargar Alarido (2022) REMUX 1080p Latino. Una joven madre soltera es cautiva junto con sus dos hijos...

    Director: D.J. Caruso

    Género: Remux

    Actores: Vincent Gallo

  • Poltergeist (1982) REMUX 1080p Latino – CMHDD

    Poltergeist (1982) REMUX 1080p Latino – CMHDD

    1982
    Poltergeist (1982) REMUX 1080p Latino – CMHDD

    1h 54m 1982

    Una familia americana de clase media se traslada a vivir e una nueva casa en un aparentemente idílico...

    Director: Tobe Hooper

    Género: Terror

    Actores: Zelda Rubinstein

descargar La Marca del Demonio (2020) WEB-DL 1080p Latino WEBDL 1080p gratis, La Marca del Demonio (2020) WEB-DL 1080p Latino WEBDL mega 1 link, La Marca del Demonio (2020) WEB-DL 1080p Latino WEBDL pelicula completa, descargar La Marca del Demonio (2020) WEB-DL 1080p Latino WEBDL gratis en mega.

La Marca del Demonio (2020) WEB-DL 1080p Latino pelicula full hd, La Marca del Demonio (2020) WEB-DL 1080p Latino mega latino, La Marca del Demonio (2020) WEB-DL 1080p Latino 4k latino, La Marca del Demonio (2020) WEB-DL 1080p Latino pelicula completa, La Marca del Demonio (2020) WEB-DL 1080p Latino descargar gratis, descargar La Marca del Demonio (2020) WEB-DL 1080p Latino pelicula latino, La Marca del Demonio (2020) WEB-DL 1080p Latino 1 link mega, La Marca del Demonio (2020) WEB-DL 1080p Latino 1 link google drive, La Marca del Demonio (2020) WEB-DL 1080p Latino hd 1080p latino.
Comentarios 0