×

¿Problemas para descargar con Mozilla, EDGE? Deshabilita la opción "Abrir vinculos en una pestaña nueva" tal como lo muestra ésta imagen.

La Máquina infernal (2022) WEB-DL 1080p Latino

324 vistas

Información de La Máquina infernal (2022) WEB-DL 1080p Latino

Datos de la película

  • Calidad: WEBDL
  • Audio: Español Latino AC3 5.1 WEB-DL - Ingles AC3 5.1 WEB-DL
  • Subtitulos: Español Latino SRT- FORZADOS SRT
  • Resolución: 1916x796p
  • Formato: MKV
  • Codec: H.264
  • Encoder: Melkor
  • Mediainfo: Clic para Mostrar Datos Ver
  • La Maquina Infernal (2022) WebDL 1080p Latino.mkv
    Format                      : Matroska
    Format version              : Version 4
    File size                   : 6.51 GiB
    Duration                    : 1 h 52 min
    Overall bit rate            : 8 297 kb/s
    Movie name                  : The Infernal Machine (2022) CinemaniaHDD.Net
    Encoded date                : UTC 2022-09-28 06:14:23
    Writing application         : mkvmerge v56.1.0 ('My Friend') 64-bit
    Writing library             : libebml v1.4.2 + libmatroska v1.6.4
    Attachments                 : CINEMANIAHD.png

    Video
    ID                          : 1
    Format                      : AVC
    Format/Info                 : Advanced Video Codec
    Format profile              : High@L4
    Format settings             : CABAC / 5 Ref Frames
    Format settings, CABAC      : Yes
    Format settings, Reference  : 5 frames
    Codec ID                    : V_MPEG4/ISO/AVC
    Duration                    : 1 h 51 min
    Bit rate                    : 6 702 kb/s
    Width                       : 1 916 pixels
    Height                      : 796 pixels
    Display aspect ratio        : 2.40:1
    Frame rate mode             : Constant
    Frame rate                  : 23.976 (24000/1001) FPS
    Color space                 : YUV
    Chroma subsampling          : 4:2:0
    Bit depth                   : 8 bits
    Scan type                   : Progressive
    Bits/(Pixel*Frame)          : 0.183
    Stream size                 : 5.20 GiB (80%)
    Title                       : Web HD1080p [CinemaniaHDD]
    Default                     : Yes
    Forced                      : Yes
    Color range                 : Limited
    Color primaries             : BT.709
    Transfer characteristics    : BT.709
    Matrix coefficients         : BT.709

    Audio #1
    ID                          : 2
    Format                      : AC-3
    Format/Info                 : Audio Coding 3
    Commercial name             : Dolby Digital
    Codec ID                    : A_AC3
    Duration                    : 1 h 52 min
    Bit rate mode               : Constant
    Bit rate                    : 640 kb/s
    Channel(s)                  : 6 channels
    Channel layout              : L R C LFE Ls Rs
    Sampling rate               : 48.0 kHz
    Frame rate                  : 31.250 FPS (1536 SPF)
    Compression mode            : Lossy
    Stream size                 : 514 MiB (8%)
    Title                       : Español Latino AC3 [CinemaniaHDD]
    Language                    : Spanish
    Service kind                : Complete Main
    Default                     : Yes
    Forced                      : Yes

    Audio #2
    ID                          : 3
    Format                      : E-AC-3
    Format/Info                 : Enhanced AC-3
    Commercial name             : Dolby Digital Plus
    Codec ID                    : A_EAC3
    Duration                    : 1 h 52 min
    Bit rate mode               : Constant
    Bit rate                    : 640 kb/s
    Channel(s)                  : 6 channels
    Channel layout              : L R C LFE Ls Rs
    Sampling rate               : 48.0 kHz
    Frame rate                  : 31.250 FPS (1536 SPF)
    Compression mode            : Lossy
    Stream size                 : 514 MiB (8%)
    Title                       : Español Latino EAC3 [CinemaniaHDD]
    Language                    : Spanish
    Service kind                : Complete Main
    Default                     : No
    Forced                      : No

    Audio #3
    ID                          : 4
    Format                      : AC-3
    Format/Info                 : Audio Coding 3
    Commercial name             : Dolby Digital
    Codec ID                    : A_AC3
    Duration                    : 1 h 51 min
    Bit rate mode               : Constant
    Bit rate                    : 384 kb/s
    Channel(s)                  : 6 channels
    Channel layout              : L R C LFE Ls Rs
    Sampling rate               : 48.0 kHz
    Frame rate                  : 31.250 FPS (1536 SPF)
    Compression mode            : Lossy
    Stream size                 : 305 MiB (5%)
    Title                       : Ingles [CinemaniaHDD]
    Language                    : English
    Service kind                : Complete Main
    Default                     : No
    Forced                      : No

    Text #1
    ID                          : 5
    Format                      : UTF-8
    Codec ID                    : S_TEXT/UTF8
    Codec ID/Info               : UTF-8 Plain Text
    Duration                    : 1 h 49 min
    Bit rate                    : 2 b/s
    Count of elements           : 60
    Stream size                 : 1.69 KiB (0%)
    Title                       : Forzados-SRT [CinemaniaHDD]
    Language                    : Spanish
    Default                     : Yes
    Forced                      : Yes

    Text #2
    ID                          : 6
    Format                      : UTF-8
    Codec ID                    : S_TEXT/UTF8
    Codec ID/Info               : UTF-8 Plain Text
    Duration                    : 1 h 50 min
    Bit rate                    : 43 b/s
    Count of elements           : 1003
    Stream size                 : 35.4 KiB (0%)
    Title                       : Español-SRT [CinemaniaHDD]
    Language                    : Spanish
    Default                     : No
    Forced                      : No

    Text #3
    ID                          : 7
    Format                      : UTF-8
    Codec ID                    : S_TEXT/UTF8
    Codec ID/Info               : UTF-8 Plain Text
    Duration                    : 1 h 50 min
    Bit rate                    : 47 b/s
    Count of elements           : 1169
    Stream size                 : 38.2 KiB (0%)
    Title                       : Ingles-SRT [CinemaniaHDD]
    Language                    : English
    Default                     : No
    Forced                      : No

  • Peso: 6.51 GiB

Sinopsis

Descargar La Máquina infernal (2022) WEB-DL 1080p Latino. Un fan obsesivo saca de su escondite al solitario y controvertido autor Bruce Cogburn, lo que obliga al novelista a enfrentarse a un pasado del que pensaba que podía escapar.

Ficha técnica

  • Titulo original: The Infernal Machine
  • Fecha de lanzamiento: 23-09-2022 (Portugal)
  • Director: Andrew Hunt
  • Género: Suspenso

Video trailer de la película

Enlaces de descarga

Rip de Bluray

Descargar La Máquina infernal (2022) WEB-DL 1080p Latino




Aportes de DPeliculasHDmega la pass es:dpeliculashdmega.org Aportes de CinemaniaHD la pass es:cinemaniahdd.com Aportes recientes:cinemaniahdd.net
Guardado en : Suspenso

Películas relacionadas

  • Naturaleza Humana (2022) REMUX 1080p Latino

    Naturaleza Humana (2022) REMUX 1080p Latino

    2022
    Naturaleza Humana (2022) REMUX 1080p Latino

    1h 31m 2022

    Descargar Naturaleza Humana (2022) REMUX 1080p Latino. Una historia sobre la mayoría de edad contada...

    Director: Louie Gibson

    Género: Drama

    Actores: Tim Heidecker

  • Sin Aire (The Dive) (2023) AMZN WEB-DL 1080p Latino

    Sin Aire (The Dive) (2023) AMZN WEB-DL 1080p Latino

    2023
    Sin Aire (The Dive) (2023) AMZN WEB-DL 1080p Latino

    1h 31m 2023

    Dos hermanas van a bucear a un hermoso y remoto lugar. Una de las hermanas es golpeada por una roca,...

    Director: Samantha Cassar Ellis

    Género: Suspenso

    Actores: Stella Uhrig

  • Squealer (2023) PCOK WEB-DL 1080p Latino

    Squealer (2023) PCOK WEB-DL 1080p Latino

    2023
    Squealer (2023) PCOK WEB-DL 1080p Latino

    1h 39m 2023

    Un policía local y una trabajadora social, siguen las pistas sobre los casos de personas desaparecidas...

    Director: Andy Armstrong

    Género: Suspenso

    Actores: Wes Chatham

  • Combate clandestino (2024) AMZN WEB-DL 1080p Latino

    Combate clandestino (2024) AMZN WEB-DL 1080p Latino

    2024
    Combate clandestino (2024) AMZN WEB-DL 1080p Latino

    1h 30m 2024

    Descargar Combate clandestino (2024) AMZN WEB-DL 1080p Latino. Un ex soldado a la deriva se convierte...

    Director: Christian Sesma

    Género: Acción

    Actores: Tyler Wombles

descargar La Máquina infernal (2022) WEB-DL 1080p Latino WEBDL 1080p gratis, La Máquina infernal (2022) WEB-DL 1080p Latino WEBDL mega 1 link, La Máquina infernal (2022) WEB-DL 1080p Latino WEBDL pelicula completa, descargar La Máquina infernal (2022) WEB-DL 1080p Latino WEBDL gratis en mega.

La Máquina infernal (2022) WEB-DL 1080p Latino pelicula full hd, La Máquina infernal (2022) WEB-DL 1080p Latino mega latino, La Máquina infernal (2022) WEB-DL 1080p Latino 4k latino, La Máquina infernal (2022) WEB-DL 1080p Latino pelicula completa, La Máquina infernal (2022) WEB-DL 1080p Latino descargar gratis, descargar La Máquina infernal (2022) WEB-DL 1080p Latino pelicula latino, La Máquina infernal (2022) WEB-DL 1080p Latino 1 link mega, La Máquina infernal (2022) WEB-DL 1080p Latino 1 link google drive, La Máquina infernal (2022) WEB-DL 1080p Latino hd 1080p latino.
Comentarios 0