×

¿Problemas para descargar con Mozilla, EDGE? Deshabilita la opción "Abrir vinculos en una pestaña nueva" tal como lo muestra ésta imagen.

La Maldición [The Grudge] (2020) 1080p Latino

1.517 vistas

Información de La Maldición [The Grudge] (2020) 1080p Latino

Datos de la película

  • Calidad: 1080p
  • Audio: Español Latino AC3 5.1 BLURAY - Ingles AC3 5.1 BLURAY
  • Subtitulos: Español Latino SRT- FORZADOS SRT
  • Resolución: 1920x800
  • Formato: MKV
  • Codec: H.264
  • Encoder: cinemaniahdd
  • Mediainfo: Clic para Mostrar Datos Ver
  • The, Grudge (2020) 1080p Latino.mkv
    Format                      : Matroska
    Format version              : Version 4
    File size                   : 2.99 GiB
    Duration                    : 1 h 33 min
    Overall bit rate            : 4 572 kb/s
    Movie name                  : The, Grudge (2020) - CinemaniaHDD.Net
    Encoded date                : UTC 2020-03-13 21:28:09
    Writing application         : mkvmerge v42.0.0 ('Overtime') 64-bit
    Writing library             : libebml v1.3.10 + libmatroska v1.5.2

    Video
    ID                          : 1
    Format                      : AVC
    Format/Info                 : Advanced Video Codec
    Format profile              : Main@L4
    Format settings             : CABAC / 4 Ref Frames
    Format settings, CABAC      : Yes
    Format settings, ReFrames   : 4 frames
    Codec ID                    : V_MPEG4/ISO/AVC
    Duration                    : 1 h 33 min
    Bit rate                    : 3 500 kb/s
    Width                       : 1 920 pixels
    Height                      : 802 pixels
    Display aspect ratio        : 2.40:1
    Frame rate mode             : Constant
    Frame rate                  : 23.976 (24000/1001) FPS
    Color space                 : YUV
    Chroma subsampling          : 4:2:0
    Bit depth                   : 8 bits
    Scan type                   : Progressive
    Bits/(Pixel*Frame)          : 0.095
    Stream size                 : 2.28 GiB (76%)
    Title                       : CinemaniaHDD
    Writing library             : x264 core 157 r2935 545de2f
    Encoding settings           : cabac=1 / ref=3 / deblock=1:0:0 / analyse=0x1:0x111 / me=hex / subme=7 / psy=1 / psy_rd=1.00:0.00 / mixed_ref=1 / me_range=16 / chroma_me=1 / trellis=1 / 8x8dct=0 / cqm=0 / deadzone=21,11 / fast_pskip=1 / chroma_qp_offset=-2 / threads=25 / lookahead_threads=4 / sliced_threads=0 / nr=0 / decimate=1 / interlaced=0 / bluray_compat=0 / constrained_intra=0 / bframes=3 / b_pyramid=2 / b_adapt=1 / b_bias=0 / direct=1 / weightb=1 / open_gop=0 / weightp=2 / keyint=240 / keyint_min=24 / scenecut=40 / intra_refresh=0 / rc_lookahead=40 / rc=abr / mbtree=1 / bitrate=3500 / ratetol=1.0 / qcomp=0.60 / qpmin=0 / qpmax=69 / qpstep=4 / vbv_maxrate=20000 / vbv_bufsize=25000 / nal_hrd=none / filler=0 / ip_ratio=1.40 / aq=1:1.00
    Default                     : Yes
    Forced                      : No
    Color range                 : Limited
    Color primaries             : BT.709
    Transfer characteristics    : BT.709
    Matrix coefficients         : BT.709

    Audio #1
    ID                          : 2
    Format                      : AC-3
    Format/Info                 : Audio Coding 3
    Commercial name             : Dolby Digital
    Codec ID                    : A_AC3
    Duration                    : 1 h 33 min
    Bit rate mode               : Constant
    Bit rate                    : 640 kb/s
    Channel(s)                  : 6 channels
    Channel layout              : L R C LFE Ls Rs
    Sampling rate               : 48.0 kHz
    Frame rate                  : 31.250 FPS (1536 SPF)
    Bit depth                   : 16 bits
    Compression mode            : Lossy
    Delay relative to video     : 24 ms
    Stream size                 : 429 MiB (14%)
    Title                       : Español latino [CinemaniaHDD]
    Language                    : Spanish
    Service kind                : Complete Main
    Default                     : Yes
    Forced                      : No

    Audio #2
    ID                          : 3
    Format                      : AC-3
    Format/Info                 : Audio Coding 3
    Commercial name             : Dolby Digital
    Codec ID                    : A_AC3
    Duration                    : 1 h 33 min
    Bit rate mode               : Constant
    Bit rate                    : 448 kb/s
    Channel(s)                  : 6 channels
    Channel layout              : L R C LFE Ls Rs
    Sampling rate               : 48.0 kHz
    Frame rate                  : 31.250 FPS (1536 SPF)
    Bit depth                   : 16 bits
    Compression mode            : Lossy
    Delay relative to video     : -5 ms
    Stream size                 : 300 MiB (10%)
    Title                       : Inglés [CinemaniaHDD]
    Language                    : English
    Service kind                : Complete Main
    Default                     : No
    Forced                      : No

    Text #1
    ID                          : 4
    Format                      : UTF-8
    Codec ID                    : S_TEXT/UTF8
    Codec ID/Info               : UTF-8 Plain Text
    Duration                    : 1 h 9 min
    Bit rate                    : 0 b/s
    Count of elements           : 18
    Stream size                 : 491 Bytes (0%)
    Title                       : Forzados [CinemaniaHDD]
    Language                    : Spanish
    Default                     : Yes
    Forced                      : Yes

    Text #2
    ID                          : 5
    Format                      : UTF-8
    Codec ID                    : S_TEXT/UTF8
    Codec ID/Info               : UTF-8 Plain Text
    Duration                    : 1 h 25 min
    Bit rate                    : 33 b/s
    Count of elements           : 748
    Stream size                 : 21.3 KiB (0%)
    Title                       : Español latino [CinemaniaHDD]
    Language                    : Spanish
    Default                     : No
    Forced                      : No

    Menu
    00:00:00.000                : :Chapter 1
    00:03:23.954                : :Chapter 2
    00:09:48.171                : :Chapter 3
    00:15:35.685                : :Chapter 4
    00:20:08.207                : :Chapter 5
    00:27:51.545                : :Chapter 6
    00:32:22.315                : :Chapter 7
    00:40:53.451                : :Chapter 8
    00:46:06.555                : :Chapter 9
    00:54:23.427                : :Chapter 10
    00:57:20.938                : :Chapter 11
    01:02:53.520                : :Chapter 12
    01:09:05.141                : :Chapter 13
    01:13:50.468                : :Chapter 14
    01:20:38.459                : :Chapter 15
    01:25:53.190                : :Chapter 16

     

  • Peso: 2.99 GiB

Sinopsis

Después de que una joven madre asesina a su familia en su propia casa, una madre soltera y un detective intentan investigar y resolver el caso. Más tarde, descubren que la casa está maldita por un fantasma vengativo que condena a quienes entran con una muerte violenta.

Ficha técnica

Video trailer de la película

Enlaces de descarga

Rip de Bluray

Descargar La Maldición [The Grudge] (2020) 1080p Latino




Aportes de DPeliculasHDmega la pass es:dpeliculashdmega.org Aportes de CinemaniaHD la pass es:cinemaniahdd.com
Guardado en : HD 1080p , Misterio , Terror

Películas relacionadas

descargar La Maldición [The Grudge] (2020) 1080p Latino 1080p 1080p gratis, La Maldición [The Grudge] (2020) 1080p Latino 1080p mega 1 link, La Maldición [The Grudge] (2020) 1080p Latino 1080p pelicula completa, descargar La Maldición [The Grudge] (2020) 1080p Latino 1080p gratis en mega.

La Maldición [The Grudge] (2020) 1080p Latino pelicula full hd, La Maldición [The Grudge] (2020) 1080p Latino mega latino, La Maldición [The Grudge] (2020) 1080p Latino 4k latino, La Maldición [The Grudge] (2020) 1080p Latino pelicula completa, La Maldición [The Grudge] (2020) 1080p Latino descargar gratis, descargar La Maldición [The Grudge] (2020) 1080p Latino pelicula latino, La Maldición [The Grudge] (2020) 1080p Latino 1 link mega, La Maldición [The Grudge] (2020) 1080p Latino 1 link google drive, La Maldición [The Grudge] (2020) 1080p Latino hd 1080p latino.
Comentarios 1