×

¿Problemas para descargar con Mozilla, EDGE? Deshabilita la opción "Abrir vinculos en una pestaña nueva" tal como lo muestra ésta imagen.

La maldición del Queen Mary (2023) WEB-DL 1080p Latino

76 vistas

Información de La maldición del Queen Mary (2023) WEB-DL 1080p Latino

Datos de la película

  • Calidad: WEBDL
  • Audio: Español Latino AC3 5.1 WEB-DL - Ingles AC3 5.1 WEB-DL
  • Subtitulos: Español Latino SRT- FORZADOS SRT
  • Resolución: 1920x960p
  • Formato: MKV
  • Codec: H.264
  • Encoder: Melkor
  • Mediainfo: Clic para Mostrar Datos Ver
  • Haunting Of The Queen Mary (2023) WEB 1080p Latino.mkv
    Format                      : Matroska
    Format version              : Version 4
    File size                   : 10.7 GiB
    Duration                    : 2 h 4 min
    Overall bit rate            : 12.3 Mb/s
    Movie name                  : Haunting Of The Queen Mary (2023) CinemaniaHDD.Net
    Encoded date                : UTC 2024-02-03 06:16:20
    Writing application         : mkvmerge v56.1.0 ('My Friend') 64-bit
    Writing library             : libebml v1.4.2 + libmatroska v1.6.4
    Attachments                 : CINEMANIAHD.png
    Site                        : CinemaniaHDD.Net
    Uploader                    : Melkor

    Video
    ID                          : 1
    Format                      : AVC
    Format/Info                 : Advanced Video Codec
    Format profile              : High@L4.2
    Format settings             : CABAC / 4 Ref Frames
    Format settings, CABAC      : Yes
    Format settings, Reference  : 4 frames
    Format settings, GOP        : M=1, N=25
    Codec ID                    : V_MPEG4/ISO/AVC
    Duration                    : 2 h 4 min
    Bit rate                    : 11.0 Mb/s
    Width                       : 1 920 pixels
    Height                      : 960 pixels
    Display aspect ratio        : 2.000
    Frame rate mode             : Constant
    Frame rate                  : 23.976 (24000/1001) FPS
    Standard                    : Component
    Color space                 : YUV
    Chroma subsampling          : 4:2:0
    Bit depth                   : 8 bits
    Scan type                   : Progressive
    Bits/(Pixel*Frame)          : 0.250
    Stream size                 : 9.63 GiB (90%)
    Title                       : Web HD1080p [CinemaniaHDD]
    Default                     : Yes
    Forced                      : Yes
    Color range                 : Limited
    Matrix coefficients         : BT.709

    Audio #1
    ID                          : 2
    Format                      : AC-3
    Format/Info                 : Audio Coding 3
    Commercial name             : Dolby Digital
    Codec ID                    : A_AC3
    Duration                    : 2 h 4 min
    Bit rate mode               : Constant
    Bit rate                    : 640 kb/s
    Channel(s)                  : 6 channels
    Channel layout              : L R C LFE Ls Rs
    Sampling rate               : 48.0 kHz
    Frame rate                  : 31.250 FPS (1536 SPF)
    Compression mode            : Lossy
    Stream size                 : 571 MiB (5%)
    Title                       : Español Latino [CinemaniaHDD]
    Language                    : Spanish
    Service kind                : Complete Main
    Default                     : Yes
    Forced                      : Yes

    Audio #2
    ID                          : 3
    Format                      : E-AC-3
    Format/Info                 : Enhanced AC-3
    Commercial name             : Dolby Digital Plus
    Codec ID                    : A_EAC3
    Duration                    : 2 h 4 min
    Bit rate mode               : Constant
    Bit rate                    : 640 kb/s
    Channel(s)                  : 6 channels
    Channel layout              : L R C LFE Ls Rs
    Sampling rate               : 48.0 kHz
    Frame rate                  : 31.250 FPS (1536 SPF)
    Compression mode            : Lossy
    Stream size                 : 571 MiB (5%)
    Title                       : Ingles [CinemaniaHDD]
    Language                    : English
    Service kind                : Complete Main
    Default                     : No
    Forced                      : No

    Text #1
    ID                          : 4
    Format                      : UTF-8
    Codec ID                    : S_TEXT/UTF8
    Codec ID/Info               : UTF-8 Plain Text
    Duration                    : 1 h 55 min
    Bit rate                    : 2 b/s
    Count of elements           : 60
    Stream size                 : 2.07 KiB (0%)
    Title                       : Forzados-SRT [CinemaniaHDD]
    Language                    : Spanish
    Default                     : Yes
    Forced                      : Yes

    Text #2
    ID                          : 5
    Format                      : UTF-8
    Codec ID                    : S_TEXT/UTF8
    Codec ID/Info               : UTF-8 Plain Text
    Duration                    : 1 h 55 min
    Bit rate                    : 48 b/s
    Count of elements           : 1110
    Stream size                 : 41.4 KiB (0%)
    Title                       : Español-SRT [CinemaniaHDD]
    Language                    : Spanish
    Default                     : No
    Forced                      : No

    Text #3
    ID                          : 6
    Format                      : UTF-8
    Codec ID                    : S_TEXT/UTF8
    Codec ID/Info               : UTF-8 Plain Text
    Duration                    : 2 h 3 min
    Bit rate                    : 64 b/s
    Count of elements           : 2181
    Stream size                 : 58.8 KiB (0%)
    Title                       : Ingles-SRT [CinemaniaHDD]
    Language                    : English
    Default                     : No
    Forced                      : No

  • Peso: 10.7 GiB

Sinopsis

Descargar La maldición del Queen Mary (2023) WEB-DL 1080p Latino. El icónico transatlántico, The Queen Mary, está lleno de historias que lo convierten en uno de los sitios paranormales más importantes del mundo.

Ficha técnica

  • Titulo original: Haunting of the Queen Mary
  • Fecha de lanzamiento: 19-07-2023 (United Kingdom, United States of America)
  • Director: Gary Shore
  • Género: Suspenso, Terror

Video trailer de la película

Enlaces de descarga

Rip de Bluray

Descargar La maldición del Queen Mary (2023) WEB-DL 1080p Latino




Aportes de DPeliculasHDmega la pass es:dpeliculashdmega.org Aportes de CinemaniaHD la pass es:cinemaniahdd.com Aportes recientes:cinemaniahdd.net
Guardado en : Suspenso , Terror

Películas relacionadas

  • Godzilla vs. Kong (2021) REMUX 4K HDR Latino – CMHDD

    Godzilla vs. Kong (2021) REMUX 4K HDR Latino – CMHDD

    2021
    Godzilla vs. Kong (2021) REMUX 4K HDR Latino – CMHDD

    1h 54m 2021

    Godzilla y Kong, dos de las fuerzas más poderosas de un planeta habitado por todo tipo de aterradoras...

    Director: Thomas Robinson Harper

    Género: Acción

    Actores: Victoria Liu

  • Lisa Frankenstein (2024) HD 1080p Latino

    Lisa Frankenstein (2024) HD 1080p Latino

    2024
    Lisa Frankenstein (2024) HD 1080p Latino

    1h 42m 2024

    Descargar Lisa Frankenstein (2024) HD 1080p Latino. En 1989, una impopular chica de secundaria llamada...

    Director: Zelda Williams

    Género: Comedia

    Actores: Wendy Miklovic

  • Lisa Frankenstein (2024) PLACEBO Full HD 1080p Latino

    Lisa Frankenstein (2024) PLACEBO Full HD 1080p Latino

    2024
    Lisa Frankenstein (2024) PLACEBO Full HD 1080p Latino

    1h 42m 2024

    Descargar Lisa Frankenstein (2024) PLACEBO Full HD 1080p Latino. En 1989, una impopular chica de secundaria...

    Director: Zelda Williams

    Género: Comedia

    Actores: Wendy Miklovic

  • Lisa Frankenstein (2024) REMUX 1080p Latino

    Lisa Frankenstein (2024) REMUX 1080p Latino

    2024
    Lisa Frankenstein (2024) REMUX 1080p Latino

    1h 42m 2024

    Descargar Lisa Frankenstein (2024) REMUX 1080p Latino. En 1989, una impopular chica de secundaria llamada...

    Director: Zelda Williams

    Género: Comedia

    Actores: Wendy Miklovic

  • Aguas siniestras (2024) HD 1080p Latino

    Aguas siniestras (2024) HD 1080p Latino

    2024
    Aguas siniestras (2024) HD 1080p Latino

    1h 56m 2024

    Descargar Aguas siniestras (2024) HD 1080p Latino. Ray Waller, una estrella del béisbol obligada a retirarse...

    Director: Phil DeSanti

    Género: HD 1080p

    Actores: Wyatt Russell

descargar La maldición del Queen Mary (2023) WEB-DL 1080p Latino WEBDL 1080p gratis, La maldición del Queen Mary (2023) WEB-DL 1080p Latino WEBDL mega 1 link, La maldición del Queen Mary (2023) WEB-DL 1080p Latino WEBDL pelicula completa, descargar La maldición del Queen Mary (2023) WEB-DL 1080p Latino WEBDL gratis en mega.

La maldición del Queen Mary (2023) WEB-DL 1080p Latino pelicula full hd, La maldición del Queen Mary (2023) WEB-DL 1080p Latino mega latino, La maldición del Queen Mary (2023) WEB-DL 1080p Latino 4k latino, La maldición del Queen Mary (2023) WEB-DL 1080p Latino pelicula completa, La maldición del Queen Mary (2023) WEB-DL 1080p Latino descargar gratis, descargar La maldición del Queen Mary (2023) WEB-DL 1080p Latino pelicula latino, La maldición del Queen Mary (2023) WEB-DL 1080p Latino 1 link mega, La maldición del Queen Mary (2023) WEB-DL 1080p Latino 1 link google drive, La maldición del Queen Mary (2023) WEB-DL 1080p Latino hd 1080p latino.
Comentarios 0