×

¿Problemas para descargar con Mozilla, EDGE? Deshabilita la opción "Abrir vinculos en una pestaña nueva" tal como lo muestra ésta imagen.

La Maldición de las Hermanas (2009) WEB-DL 1080p Latino

452 vistas

Información de La Maldición de las Hermanas (2009) WEB-DL 1080p Latino

Datos de la película

  • Calidad: WEBDL
  • Audio: Español Latino AC3 2.0 WEB-DL - Ingles AC3 5.1 WEB-DL
  • Subtitulos: Español Latino SRT- FORZADOS SRT
  • Resolución: 1920x1080
  • Formato: MKV
  • Codec: H.264
  • Encoder: cinemaniahdd
  • Mediainfo: Clic para Mostrar Datos Ver
  • La Maldición de las Hermanas (2009) WEB-DL 1080p Latino.mkv
    Format                      : Matroska
    Format version              : Version 4
    File size                   : 3.33 GiB
    Duration                    : 1 h 27 min
    Overall bit rate            : 5 468 kb/s
    Movie name                  : La Maldición de las Hermanas - CinemaniaHDD.Net
    Encoded date                : UTC 2020-06-14 02:41:16
    Writing application         : mkvmerge v46.0.0 ('No Deeper Escape') 64-bit
    Writing library             : libebml v1.3.10 + libmatroska v1.5.2

    Video
    ID                          : 1
    Format                      : AVC
    Format/Info                 : Advanced Video Codec
    Format profile              : High@L4
    Format settings             : CABAC / 4 Ref Frames
    Format settings, CABAC      : Yes
    Format settings, Reference  : 4 frames
    Codec ID                    : V_MPEG4/ISO/AVC
    Duration                    : 1 h 27 min
    Bit rate                    : 5 000 kb/s
    Width                       : 1 920 pixels
    Height                      : 1 080 pixels
    Display aspect ratio        : 16:9
    Frame rate mode             : Constant
    Frame rate                  : 23.976 (24000/1001) FPS
    Color space                 : YUV
    Chroma subsampling          : 4:2:0
    Bit depth                   : 8 bits
    Scan type                   : Progressive
    Bits/(Pixel*Frame)          : 0.101
    Stream size                 : 2.94 GiB (88%)
    Title                       : CinemaniaHDD
    Writing library             : x264 core 157 r2935 545de2f
    Encoding settings           : cabac=1 / ref=3 / deblock=1:0:0 / analyse=0x3:0x113 / me=hex / subme=7 / psy=1 / psy_rd=1.00:0.00 / mixed_ref=1 / me_range=16 / chroma_me=1 / trellis=1 / 8x8dct=1 / cqm=0 / deadzone=21,11 / fast_pskip=1 / chroma_qp_offset=-2 / threads=24 / lookahead_threads=4 / sliced_threads=0 / nr=0 / decimate=1 / interlaced=0 / bluray_compat=0 / constrained_intra=0 / bframes=3 / b_pyramid=2 / b_adapt=1 / b_bias=0 / direct=1 / weightb=1 / open_gop=0 / weightp=2 / keyint=240 / keyint_min=24 / scenecut=40 / intra_refresh=0 / rc_lookahead=40 / rc=abr / mbtree=1 / bitrate=5000 / ratetol=1.0 / qcomp=0.60 / qpmin=0 / qpmax=69 / qpstep=4 / vbv_maxrate=25000 / vbv_bufsize=31250 / nal_hrd=none / filler=0 / ip_ratio=1.40 / aq=1:1.00
    Default                     : Yes
    Forced                      : No
    Color range                 : Limited
    Color primaries             : BT.709
    Transfer characteristics    : BT.709
    Matrix coefficients         : BT.709

    Audio #1
    ID                          : 2
    Format                      : AC-3
    Format/Info                 : Audio Coding 3
    Commercial name             : Dolby Digital
    Codec ID                    : A_AC3
    Duration                    : 1 h 27 min
    Bit rate mode               : Constant
    Bit rate                    : 256 kb/s
    Channel(s)                  : 2 channels
    Channel layout              : L R
    Sampling rate               : 48.0 kHz
    Frame rate                  : 31.250 FPS (1536 SPF)
    Compression mode            : Lossy
    Delay relative to video     : -5 ms
    Stream size                 : 160 MiB (5%)
    Title                       : Español latino [CinemaniaHDD]
    Language                    : Spanish
    Service kind                : Complete Main
    Default                     : Yes
    Forced                      : No

    Audio #2
    ID                          : 3
    Format                      : AC-3
    Format/Info                 : Audio Coding 3
    Commercial name             : Dolby Digital
    Codec ID                    : A_AC3
    Duration                    : 1 h 27 min
    Bit rate mode               : Constant
    Bit rate                    : 384 kb/s
    Channel(s)                  : 6 channels
    Channel layout              : L R C LFE Ls Rs
    Sampling rate               : 48.0 kHz
    Frame rate                  : 31.250 FPS (1536 SPF)
    Compression mode            : Lossy
    Delay relative to video     : -5 ms
    Stream size                 : 240 MiB (7%)
    Title                       : Inglés [CinemaniaHDD]
    Language                    : English
    Service kind                : Complete Main
    Default                     : No
    Forced                      : No

    Text #1
    ID                          : 4
    Format                      : UTF-8
    Codec ID                    : S_TEXT/UTF8
    Codec ID/Info               : UTF-8 Plain Text
    Duration                    : 1 h 12 min
    Bit rate                    : 0 b/s
    Count of elements           : 5
    Stream size                 : 120 Bytes (0%)
    Title                       : Forzados [CinemaniaHDD]
    Language                    : Spanish
    Default                     : Yes
    Forced                      : Yes

    Text #2
    ID                          : 5
    Format                      : UTF-8
    Codec ID                    : S_TEXT/UTF8
    Codec ID/Info               : UTF-8 Plain Text
    Duration                    : 1 h 20 min
    Bit rate                    : 38 b/s
    Count of elements           : 721
    Stream size                 : 23.0 KiB (0%)
    Title                       : Español latino [CinemaniaHDD]
    Language                    : Spanish
    Default                     : No
    Forced                      : No

     

  • Peso: 3.33 GiB

Sinopsis

Después de la sospechosa muerte de su madre, las hermanas Anna y Alex entran en conflicto cuando su padre se compromete con Rachel, la antigua cuidadora de su madre. Al investigar su pasado, se enfrentan a fantasmas, pesadillas y consecuencias mortales.

Ficha técnica

Video trailer de la película

Enlaces de descarga

Rip de Bluray

Descargar La Maldición de las Hermanas (2009) WEB-DL 1080p Latino




Aportes de DPeliculasHDmega la pass es:dpeliculashdmega.org Aportes de CinemaniaHD la pass es:cinemaniahdd.com
Guardado en : Drama , Misterio , Suspenso , Terror

Películas relacionadas

  • Desconectada (2023) HD 1080p Latino

    Desconectada (2023) HD 1080p Latino

    2023
    Desconectada (2023) HD 1080p Latino

    1h 51m 2023

    Descargar Desconectada (2023) HD 1080p Latino. Cuando su madre desaparece estando de vacaciones en Colombia...

    Director: Will Merrick

    Género: Drama

    Actores: Tracy Vilar

  • Desconectada (2023) PLACEBO Full HD 1080p Latino

    Desconectada (2023) PLACEBO Full HD 1080p Latino

    2023
    Desconectada (2023) PLACEBO Full HD 1080p Latino

    1h 51m 2023

    Descargar Desconectada (2023) PLACEBO Full HD 1080p Latino. Cuando su madre desaparece estando de vacaciones...

    Director: Will Merrick

    Género: Drama

    Actores: Tracy Vilar

  • Desconectada (2023) REMUX 1080p Latino

    Desconectada (2023) REMUX 1080p Latino

    2023
    Desconectada (2023) REMUX 1080p Latino

    1h 51m 2023

    Descargar Desconectada (2023) REMUX 1080p Latino. Cuando su madre desaparece estando de vacaciones en...

    Director: Will Merrick

    Género: Drama

    Actores: Tracy Vilar

  • Alerta Extrema (2023) HD 1080p Latino

    Alerta Extrema (2023) HD 1080p Latino

    2023
    Alerta Extrema (2023) HD 1080p Latino

    1h 47m 2023

    Descargar Alerta Extrema (2023) HD 1080p Latino. En la noche de fin de año, el piloto experto Brodie...

    Director: Tom Brewster

    Género: Acción

    Actores: Yoson An

  • Alerta Extrema (2023) PLACEBO Full HD 1080p Latino

    Alerta Extrema (2023) PLACEBO Full HD 1080p Latino

    2023
    Alerta Extrema (2023) PLACEBO Full HD 1080p Latino

    1h 47m 2023

    Descargar Alerta Extrema (2023) PLACEBO Full HD 1080p Latino. En la noche de fin de año, el piloto experto...

    Director: Tom Brewster

    Género: Acción

    Actores: Yoson An

descargar La Maldición de las Hermanas (2009) WEB-DL 1080p Latino WEBDL 1080p gratis, La Maldición de las Hermanas (2009) WEB-DL 1080p Latino WEBDL mega 1 link, La Maldición de las Hermanas (2009) WEB-DL 1080p Latino WEBDL pelicula completa, descargar La Maldición de las Hermanas (2009) WEB-DL 1080p Latino WEBDL gratis en mega.

La Maldición de las Hermanas (2009) WEB-DL 1080p Latino pelicula full hd, La Maldición de las Hermanas (2009) WEB-DL 1080p Latino mega latino, La Maldición de las Hermanas (2009) WEB-DL 1080p Latino 4k latino, La Maldición de las Hermanas (2009) WEB-DL 1080p Latino pelicula completa, La Maldición de las Hermanas (2009) WEB-DL 1080p Latino descargar gratis, descargar La Maldición de las Hermanas (2009) WEB-DL 1080p Latino pelicula latino, La Maldición de las Hermanas (2009) WEB-DL 1080p Latino 1 link mega, La Maldición de las Hermanas (2009) WEB-DL 1080p Latino 1 link google drive, La Maldición de las Hermanas (2009) WEB-DL 1080p Latino hd 1080p latino.
Comentarios 0