×

¿Problemas para descargar con Mozilla, EDGE? Deshabilita la opción "Abrir vinculos en una pestaña nueva" tal como lo muestra ésta imagen.

Piratas del Caribe: La maldición del Perla Negra (2003) Web-DL 4K UHD HDR Latino

1.471 vistas

Información de Piratas del Caribe: La maldición del Perla Negra (2003) Web-DL 4K UHD HDR Latino

Datos de la película

  • Calidad: 4K HDR
  • Audio: Se especifica abajo de la Sinopsis
  • Subtitulos: Español Latino SRT - Ingles SRT
  • Resolución: 3840x2160p
  • Formato: MKV
  • Codec: HEVC
  • Encoder: CinefiloCool
  • Mediainfo: Clic para Mostrar Datos Ver
  • P.o.t.C. - La Maldicion del Perla Negra (2003) Web-DL UHD HDR Latino-CMHDD.mkv
    Format                      : Matroska
    Format version              : Version 4
    File size                   : 17.4 GiB
    Duration                    : 2 h 24 min
    Overall bit rate            : 17.2 Mb/s
    Movie name                  : CinemaniaHDD.Net
    Encoded date                : UTC 2020-03-11 21:11:44
    Writing application         : mkvmerge v42.0.0 ('Overtime') 64-bit
    Writing library             : libebml v1.3.10 + libmatroska v1.5.2
    Attachments                 : CINEMANIAHD.png

    Video
    ID                          : 1
    Format                      : HEVC
    Format/Info                 : High Efficiency Video Coding
    Format profile              : Main 10@L5@High
    Codec ID                    : V_MPEGH/ISO/HEVC
    Duration                    : 2 h 24 min
    Bit rate                    : 16.3 Mb/s
    Width                       : 3 840 pixels
    Height                      : 2 160 pixels
    Display aspect ratio        : 16:9
    Frame rate mode             : Constant
    Frame rate                  : 23.976 (24000/1001) FPS
    Color space                 : YUV
    Chroma subsampling          : 4:2:0
    Bit depth                   : 10 bits
    Bits/(Pixel*Frame)          : 0.082
    Stream size                 : 16.5 GiB (95%)
    Title                       : 2160p HDR [Web]
    Default                     : Yes
    Forced                      : Yes
    Color range                 : Limited
    Color primaries             : BT.2020
    Transfer characteristics    : PQ
    Matrix coefficients         : BT.2020 non-constant

    Audio #1
    ID                          : 2
    Format                      : AC-3
    Format/Info                 : Audio Coding 3
    Commercial name             : Dolby Digital
    Codec ID                    : A_AC3
    Duration                    : 2 h 23 min
    Bit rate mode               : Constant
    Bit rate                    : 640 kb/s
    Channel(s)                  : 6 channels
    Channel layout              : L R C LFE Ls Rs
    Sampling rate               : 48.0 kHz
    Frame rate                  : 31.250 FPS (1536 SPF)
    Bit depth                   : 16 bits
    Compression mode            : Lossy
    Delay relative to video     : 23 ms
    Stream size                 : 656 MiB (4%)
    Title                       : AC3_5.1_Bluray_Esp
    Language                    : Spanish
    Service kind                : Complete Main
    Default                     : Yes
    Forced                      : Yes

    Audio #2
    ID                          : 3
    Format                      : E-AC-3
    Format/Info                 : Enhanced AC-3
    Commercial name             : Dolby Digital Plus
    Codec ID                    : A_EAC3
    Duration                    : 2 h 24 min
    Bit rate mode               : Constant
    Bit rate                    : 256 kb/s
    Channel(s)                  : 6 channels
    Channel layout              : L R C LFE Ls Rs
    Sampling rate               : 48.0 kHz
    Frame rate                  : 31.250 FPS (1536 SPF)
    Compression mode            : Lossy
    Stream size                 : 264 MiB (1%)
    Title                       : DDP_5.1_Web_Eng
    Language                    : English
    Service kind                : Complete Main
    Default                     : No
    Forced                      : No

    Text #1
    ID                          : 4
    Format                      : UTF-8
    Codec ID                    : S_TEXT/UTF8
    Codec ID/Info               : UTF-8 Plain Text
    Duration                    : 2 h 14 min
    Bit rate                    : 0 b/s
    Count of elements           : 4
    Stream size                 : 108 Bytes (0%)
    Title                       : Sub_Forzados
    Language                    : Spanish
    Default                     : Yes
    Forced                      : Yes

    Text #2
    ID                          : 5
    Format                      : UTF-8
    Codec ID                    : S_TEXT/UTF8
    Codec ID/Info               : UTF-8 Plain Text
    Duration                    : 2 h 14 min
    Bit rate                    : 46 b/s
    Count of elements           : 1625
    Stream size                 : 45.8 KiB (0%)
    Title                       : Sub_Esp
    Language                    : Spanish
    Default                     : No
    Forced                      : No

    Text #3
    ID                          : 6
    Format                      : UTF-8
    Codec ID                    : S_TEXT/UTF8
    Codec ID/Info               : UTF-8 Plain Text
    Duration                    : 2 h 22 min
    Bit rate                    : 46 b/s
    Count of elements           : 1610
    Stream size                 : 48.1 KiB (0%)
    Title                       : Sub_Eng
    Language                    : English
    Default                     : No
    Forced                      : No

    Menu
    00:00:00.000                : en:Opening Credits/a Pirate's Life
    00:08:50.311                : en:Pirates Ye Be Warned
    00:16:04.578                : en:Elizabeth's Rescue
    00:27:15.374                : en:The Black Pearl
    00:35:58.354                : en:Welcome Aboard
    00:41:01.991                : en:The Hunt
    00:48:18.969                : en:Finding a Crew
    00:54:00.310                : en:Aztec Gold
    01:04:04.706                : en:The Treasure of Cortez
    01:15:55.833                : en:Keep to the Code
    01:21:20.449                : en:The Battle
    01:34:59.183                : en:Stranded Again
    01:39:59.775                : en:The Curse
    01:48:14.644                : en:The Trojan Horse
    02:02:01.220                : en:The Curse Is Lifted
    02:13:08.679                : en:End Credits

  • Peso: 17.4 GiB

Sinopsis

Descargar Piratas del Caribe: La maldición del Perla Negra (2003) Web-dL 4K UHD HDR Latino. El aventurero Capitán Jack Sparrow recorre las aguas caribeñas. Pero su andanzas terminan cuando su enemigo, el Capitán Barbossa le roba su barco, la Perla Negra, y ataca la ciudad de Port Royal, secuestrando a Elizabeth Swann, hija del Gobernador. Will Turner, el amigo de la infancia de Elizabeth, se une a Jack para rescatarla y recuperar la Perla Negra. Pero el prometido de Elizabeth, Comodoro Norrington, les persigue a bordo del HMS Impávido. Además, Barbossa y su tripulación son víctimas de un conjuro por el que están condenados a vivir eternamente, y a transformarse cada noche en esqueletos vivientes, en fantasmas guerreros.

Audio Español Latino AC3 5.1 Bluray – Ingles EAC3 5.1 Web-DL

Ficha técnica

Video trailer de la película

Enlaces de descarga

Rip de Bluray

Descargar Piratas del Caribe: La maldición del Perla Negra (2003) Web-DL 4K UHD HDR Latino




Aportes de DPeliculasHDmega la pass es:dpeliculashdmega.org Aportes de CinemaniaHD la pass es:cinemaniahdd.com
Guardado en : 4K HDR , 4K UHD , Acción , Aventura , Fantasía

Películas relacionadas

descargar Piratas del Caribe: La maldición del Perla Negra (2003) Web-DL 4K UHD HDR Latino 4K HDR 1080p gratis, Piratas del Caribe: La maldición del Perla Negra (2003) Web-DL 4K UHD HDR Latino 4K HDR mega 1 link, Piratas del Caribe: La maldición del Perla Negra (2003) Web-DL 4K UHD HDR Latino 4K HDR pelicula completa, descargar Piratas del Caribe: La maldición del Perla Negra (2003) Web-DL 4K UHD HDR Latino 4K HDR gratis en mega.

Piratas del Caribe: La maldición del Perla Negra (2003) Web-DL 4K UHD HDR Latino pelicula full hd, Piratas del Caribe: La maldición del Perla Negra (2003) Web-DL 4K UHD HDR Latino mega latino, Piratas del Caribe: La maldición del Perla Negra (2003) Web-DL 4K UHD HDR Latino 4k latino, Piratas del Caribe: La maldición del Perla Negra (2003) Web-DL 4K UHD HDR Latino pelicula completa, Piratas del Caribe: La maldición del Perla Negra (2003) Web-DL 4K UHD HDR Latino descargar gratis, descargar Piratas del Caribe: La maldición del Perla Negra (2003) Web-DL 4K UHD HDR Latino pelicula latino, Piratas del Caribe: La maldición del Perla Negra (2003) Web-DL 4K UHD HDR Latino 1 link mega, Piratas del Caribe: La maldición del Perla Negra (2003) Web-DL 4K UHD HDR Latino 1 link google drive, Piratas del Caribe: La maldición del Perla Negra (2003) Web-DL 4K UHD HDR Latino hd 1080p latino.
Comentarios 0