×

¿Problemas para descargar con Mozilla, EDGE? Deshabilita la opción "Abrir vinculos en una pestaña nueva" tal como lo muestra ésta imagen.

La Maldicion de la Llorona (2019) 1080p Latino

3.619 vistas

Información de La Maldicion de la Llorona (2019) 1080p Latino

la llorona 55069 poster

Datos de la película

  • Calidad: 1080p
  • Audio: Español Latino AC3 5.1 iTUNES - Ingles AC3 5.1 BLURAY
  • Subtitulos: Español Latino SRT- FORZADOS SRT
  • Resolución: 1920x808p
  • Formato: MKV
  • Codec: H.264
  • Encoder: Chesse92
  • Mediainfo: Clic para Mostrar Datos Ver
  • The Curse of La Llorona (2019) 1080p Latino.mkv
    Format                      : Matroska
    Format version              : Version 4
    File size                   : 2.82 GiB
    Duration                    : 1 h 33 min
    Overall bit rate            : 4 332 kb/s
    Movie name                  : The Curse of La Llorona (2019) 1080p Latino
    Encoded date                : UTC 2019-07-20 04:30:04
    Writing application         : mkvmerge v35.0.0 ('All The Love In The World') 64-bit
    Writing library             : libebml v1.3.9 + libmatroska v1.5.2 / Lavf58.20.100

    Video
    ID                          : 1
    Format                      : AVC
    Format/Info                 : Advanced Video Codec
    Format profile              : High@L4.1
    Format settings             : CABAC / 4 Ref Frames
    Format settings, CABAC      : Yes
    Format settings, ReFrames   : 4 frames
    Codec ID                    : V_MPEG4/ISO/AVC
    Duration                    : 1 h 33 min
    Bit rate                    : 3 500 kb/s
    Width                       : 1 920 pixels
    Height                      : 808 pixels
    Display aspect ratio        : 2.40:1
    Frame rate mode             : Constant
    Frame rate                  : 23.976 (24000/1001) FPS
    Color space                 : YUV
    Chroma subsampling          : 4:2:0
    Bit depth                   : 8 bits
    Scan type                   : Progressive
    Bits/(Pixel*Frame)          : 0.094
    Stream size                 : 2.28 GiB (81%)
    Title                       : CinemaniaHDD
    Writing library             : x264 core 157 r2935 545de2f
    Encoding settings           : cabac=1 / ref=3 / deblock=1:0:0 / analyse=0x3:0x113 / me=hex / subme=7 / psy=1 / psy_rd=1.00:0.00 / mixed_ref=1 / me_range=16 / chroma_me=1 / trellis=1 / 8x8dct=1 / cqm=0 / deadzone=21,11 / fast_pskip=1 / chroma_qp_offset=-2 / threads=25 / lookahead_threads=4 / sliced_threads=0 / nr=0 / decimate=1 / interlaced=0 / bluray_compat=0 / constrained_intra=0 / bframes=3 / b_pyramid=2 / b_adapt=1 / b_bias=0 / direct=1 / weightb=1 / open_gop=0 / weightp=2 / keyint=240 / keyint_min=24 / scenecut=40 / intra_refresh=0 / rc_lookahead=40 / rc=abr / mbtree=1 / bitrate=3500 / ratetol=1.0 / qcomp=0.60 / qpmin=0 / qpmax=69 / qpstep=4 / vbv_maxrate=62500 / vbv_bufsize=78125 / nal_hrd=none / filler=0 / ip_ratio=1.40 / aq=1:1.00
    Default                     : Yes
    Forced                      : No
    Color range                 : Limited
    Color primaries             : BT.709
    Transfer characteristics    : BT.709
    Matrix coefficients         : BT.709

    Audio #1
    ID                          : 2
    Format                      : AC-3
    Format/Info                 : Audio Coding 3
    Commercial name             : Dolby Digital
    Codec ID                    : A_AC3
    Duration                    : 1 h 33 min
    Bit rate mode               : Constant
    Bit rate                    : 384 kb/s
    Channel(s)                  : 6 channels
    Channel layout              : L R C LFE Ls Rs
    Sampling rate               : 48.0 kHz
    Frame rate                  : 31.250 FPS (1536 SPF)
    Bit depth                   : 16 bits
    Compression mode            : Lossy
    Delay relative to video     : 795 ms
    Stream size                 : 256 MiB (9%)
    Title                       : Español latino [CinemaniaHDD]
    Language                    : Spanish
    Service kind                : Complete Main
    Default                     : Yes
    Forced                      : No

    Audio #2
    ID                          : 3
    Format                      : AC-3
    Format/Info                 : Audio Coding 3
    Commercial name             : Dolby Digital
    Codec ID                    : A_AC3
    Duration                    : 1 h 33 min
    Bit rate mode               : Constant
    Bit rate                    : 448 kb/s
    Channel(s)                  : 6 channels
    Channel layout              : L R C LFE Ls Rs
    Sampling rate               : 48.0 kHz
    Frame rate                  : 31.250 FPS (1536 SPF)
    Bit depth                   : 16 bits
    Compression mode            : Lossy
    Delay relative to video     : -5 ms
    Stream size                 : 299 MiB (10%)
    Title                       : Inglés [CinemaniaHDD]
    Language                    : English
    Service kind                : Complete Main
    Default                     : No
    Forced                      : No

    Text #1
    ID                          : 4
    Format                      : UTF-8
    Codec ID                    : S_TEXT/UTF8
    Codec ID/Info               : UTF-8 Plain Text
    Duration                    : 1 h 32 min
    Bit rate                    : 24 b/s
    Count of elements           : 741
    Stream size                 : 16.6 KiB (0%)
    Title                       : Forzados [CinemaniaHDD]
    Language                    : Spanish
    Default                     : No
    Forced                      : No

    Text #2
    ID                          : 5
    Format                      : UTF-8
    Codec ID                    : S_TEXT/UTF8
    Codec ID/Info               : UTF-8 Plain Text
    Duration                    : 13 min 16 s
    Bit rate                    : 0 b/s
    Count of elements           : 3
    Stream size                 : 75.0 Bytes (0%)
    Title                       : Español latino [CinemaniaHDD]
    Language                    : Spanish
    Default                     : Yes
    Forced                      : No

    Menu
    00:00:00.000                : :00:00:00.000
    00:09:24.355                : :00:09:24.355
    00:18:21.350                : :00:18:21.267
    00:28:09.104                : :00:28:09.104
    00:38:14.250                : :00:38:14.209
    00:48:09.595                : :00:48:09.595
    00:58:07.317                : :00:58:07.317
    01:09:04.599                : :01:09:04.557
    01:18:15.149                : :01:18:15.149
    01:26:30.727                : :01:26:30.727

  • Peso: 2.82 GiB

Sinopsis

Descargar La Maldicion de la Llorona (2019) 1080p Latino, Mega, Google Drive. La Llorona es una aparición tenebrosa, atrapada entre el Cielo y el Infierno, con un destino terrible sellado por su propia mano. La mera mención de su nombre ha causado terror en todo el mundo durante generaciones. En vida, ahogó a sus hijos en una rabia de celos, arrojándose en el río tras ver como mató a sus hijos violentamente. Ahora sus lágrimas son eternas, letales, y aquellos que escuchan su llamada de muerte en la noche están condenados. Se arrastra en las sombras y ataca a los niños, desesperada por reemplazar a los suyos. A medida que los siglos han pasado, su deseo se ha vuelto más voraz y sus métodos más terroríficos.

Ficha técnica

Video trailer de la película

Enlaces de descarga

Rip de Bluray

Descargar La Maldicion de la Llorona (2019) 1080p Latino




Aportes de DPeliculasHDmega la pass es:dpeliculashdmega.org Aportes de CinemaniaHD la pass es:cinemaniahdd.com Aportes recientes:cinemaniahdd.net
Guardado en : HD 1080p , Misterio , Suspenso , Terror

Películas relacionadas

  • Combate clandestino (2024) AMZN WEB-DL 1080p Latino

    Combate clandestino (2024) AMZN WEB-DL 1080p Latino

    2024
    Combate clandestino (2024) AMZN WEB-DL 1080p Latino

    1h 30m 2024

    Descargar Combate clandestino (2024) AMZN WEB-DL 1080p Latino. Un ex soldado a la deriva se convierte...

    Director: Christian Sesma

    Género: Acción

    Actores: Tyler Wombles

  • ¡Patos! (2023) HD 1080p Latino

    ¡Patos! (2023) HD 1080p Latino

    2023
    ¡Patos! (2023) HD 1080p Latino

    1h 23m 2023

    Descargar ¡Patos! (2023) HD 1080p Latino. Después de que una familia de patos migratorios aterriza...

    Director: Guy-Laurent Homsy

    Género: Acción

    Actores: Zeno Robinson

  • Quantum Leap (2023) Temporada 2 WEB-DL 1080p Latino

    Quantum Leap (2023) Temporada 2 WEB-DL 1080p Latino

    2022
    Quantum Leap (2023) Temporada 2 WEB-DL 1080p Latino

    0h 43m 2022

    Pasaron casi treinta años desde que el Dr. Sam Beckett entró al acelerador del proyecto Quantum Leap...

    Director: Donald P. Bellisario

    Género: Drama

    Actores: Raymond Lee

descargar La Maldicion de la Llorona (2019) 1080p Latino 1080p 1080p gratis, La Maldicion de la Llorona (2019) 1080p Latino 1080p mega 1 link, La Maldicion de la Llorona (2019) 1080p Latino 1080p pelicula completa, descargar La Maldicion de la Llorona (2019) 1080p Latino 1080p gratis en mega.

La Maldicion de la Llorona (2019) 1080p Latino pelicula full hd, La Maldicion de la Llorona (2019) 1080p Latino mega latino, La Maldicion de la Llorona (2019) 1080p Latino 4k latino, La Maldicion de la Llorona (2019) 1080p Latino pelicula completa, La Maldicion de la Llorona (2019) 1080p Latino descargar gratis, descargar La Maldicion de la Llorona (2019) 1080p Latino pelicula latino, La Maldicion de la Llorona (2019) 1080p Latino 1 link mega, La Maldicion de la Llorona (2019) 1080p Latino 1 link google drive, La Maldicion de la Llorona (2019) 1080p Latino hd 1080p latino.
Comentarios 1