×

¿Problemas para descargar con Mozilla, EDGE? Deshabilita la opción "Abrir vinculos en una pestaña nueva" tal como lo muestra ésta imagen.

La maldición de Charlie (2015) AMZN WEB-DL 1080p Latino

260 vistas

Información de La maldición de Charlie (2015) AMZN WEB-DL 1080p Latino

Datos de la película

  • Calidad:
  • Audio: Se especifica abajo de la Sinopsis
  • Subtitulos: Español Latino SRT- FORZADOS SRT
  • Resolución: 1920x816
  • Formato: MKV
  • Codec: H.264
  • Encoder: cinemaniahdd
  • Mediainfo: Clic para Mostrar Datos Ver
  • Pay The Ghost (2015) AMZN WEB-DL 1080p Latino[CNMNHDD].mkv
    Format                      : Matroska
    Format version              : Version 4
    File size                   : 5.46 GiB
    Duration                    : 1 h 33 min
    Overall bit rate            : 8 332 kb/s
    Movie name                  : Pay The Ghost (2015) - CinemaniaHDD.Net
    Encoded date                : UTC 2020-09-09 01:26:05
    Writing application         : mkvmerge v46.0.0 ('No Deeper Escape') 64-bit
    Writing library             : libebml v1.3.10 + libmatroska v1.5.2

    Video
    ID                          : 1
    Format                      : AVC
    Format/Info                 : Advanced Video Codec
    Format profile              : High@L4
    Format settings             : CABAC / 4 Ref Frames
    Format settings, CABAC      : Yes
    Format settings, Reference  : 4 frames
    Codec ID                    : V_MPEG4/ISO/AVC
    Duration                    : 1 h 33 min
    Bit rate                    : 7 434 kb/s
    Width                       : 1 920 pixels
    Height                      : 816 pixels
    Display aspect ratio        : 2.35:1
    Frame rate mode             : Constant
    Frame rate                  : 24.000 FPS
    Color space                 : YUV
    Chroma subsampling          : 4:2:0
    Bit depth                   : 8 bits
    Scan type                   : Progressive
    Bits/(Pixel*Frame)          : 0.198
    Stream size                 : 4.88 GiB (89%)
    Title                       : CinemaniaHDD
    Language                    : English
    Default                     : Yes
    Forced                      : No
    Color range                 : Limited
    Color primaries             : BT.709
    Transfer characteristics    : BT.709
    Matrix coefficients         : BT.709

    Audio #1
    ID                          : 2
    Format                      : AC-3
    Format/Info                 : Audio Coding 3
    Commercial name             : Dolby Digital
    Codec ID                    : A_AC3
    Duration                    : 1 h 33 min
    Bit rate mode               : Constant
    Bit rate                    : 256 kb/s
    Channel(s)                  : 2 channels
    Channel layout              : L R
    Sampling rate               : 48.0 kHz
    Frame rate                  : 31.250 FPS (1536 SPF)
    Compression mode            : Lossy
    Stream size                 : 172 MiB (3%)
    Title                       : Español latino [CinemaniaHDD]
    Language                    : Spanish
    Service kind                : Complete Main
    Default                     : Yes
    Forced                      : No

    Audio #2
    ID                          : 3
    Format                      : AC-3
    Format/Info                 : Audio Coding 3
    Commercial name             : Dolby Digital
    Codec ID                    : A_AC3
    Duration                    : 1 h 33 min
    Bit rate mode               : Constant
    Bit rate                    : 640 kb/s
    Channel(s)                  : 6 channels
    Channel layout              : L R C LFE Ls Rs
    Sampling rate               : 48.0 kHz
    Frame rate                  : 31.250 FPS (1536 SPF)
    Compression mode            : Lossy
    Stream size                 : 430 MiB (8%)
    Title                       : Inglés [CinemaniaHDD]
    Language                    : English
    Service kind                : Complete Main
    Default                     : No
    Forced                      : No

    Text #1
    ID                          : 4
    Format                      : UTF-8
    Codec ID                    : S_TEXT/UTF8
    Codec ID/Info               : UTF-8 Plain Text
    Duration                    : 1 h 27 min
    Bit rate                    : 0 b/s
    Count of elements           : 12
    Stream size                 : 330 Bytes (0%)
    Title                       : Forzados [CinemaniaHDD]
    Language                    : Spanish
    Default                     : Yes
    Forced                      : Yes

    Text #2
    ID                          : 5
    Format                      : UTF-8
    Codec ID                    : S_TEXT/UTF8
    Codec ID/Info               : UTF-8 Plain Text
    Duration                    : 1 h 27 min
    Bit rate                    : 35 b/s
    Count of elements           : 838
    Stream size                 : 22.9 KiB (0%)
    Title                       : Español latino [CinemaniaHDD]
    Language                    : Spanish
    Default                     : No
    Forced                      : No

     

  • Peso: 5.46 GiB

Sinopsis

Durante la Noche de Halloween, el hijo de una joven pareja es secuestrado. Un año más tarde comienzan a sentir su presencia de manera alarmante. Una serie de pistas les lleva a buscar el niño a través de Nueva York donde descubrirán que tiene relación con un espíritu feroz y vengativo.

Español Latino AC3 2.0 AMZN – Ingles AC3 5.1 AMZN

Ficha técnica

Video trailer de la película

Enlaces de descarga

Rip de Bluray

Descargar La maldición de Charlie (2015) AMZN WEB-DL 1080p Latino




Aportes de DPeliculasHDmega la pass es:dpeliculashdmega.org Aportes de CinemaniaHD la pass es:cinemaniahdd.com
Guardado en : Fantasía , Misterio , Suspenso , Terror

Películas relacionadas

descargar La maldición de Charlie (2015) AMZN WEB-DL 1080p Latino 1080p gratis, La maldición de Charlie (2015) AMZN WEB-DL 1080p Latino mega 1 link, La maldición de Charlie (2015) AMZN WEB-DL 1080p Latino pelicula completa, descargar La maldición de Charlie (2015) AMZN WEB-DL 1080p Latino gratis en mega.

La maldición de Charlie (2015) AMZN WEB-DL 1080p Latino pelicula full hd, La maldición de Charlie (2015) AMZN WEB-DL 1080p Latino mega latino, La maldición de Charlie (2015) AMZN WEB-DL 1080p Latino 4k latino, La maldición de Charlie (2015) AMZN WEB-DL 1080p Latino pelicula completa, La maldición de Charlie (2015) AMZN WEB-DL 1080p Latino descargar gratis, descargar La maldición de Charlie (2015) AMZN WEB-DL 1080p Latino pelicula latino, La maldición de Charlie (2015) AMZN WEB-DL 1080p Latino 1 link mega, La maldición de Charlie (2015) AMZN WEB-DL 1080p Latino 1 link google drive, La maldición de Charlie (2015) AMZN WEB-DL 1080p Latino hd 1080p latino.
Comentarios 0