×

¿Problemas para descargar con Mozilla, EDGE? Deshabilita la opción "Abrir vinculos en una pestaña nueva" tal como lo muestra ésta imagen.

La Madurez De Andy (2019) WebDL 1080p Latino

131 vistas

Información de La Madurez De Andy (2019) WebDL 1080p Latino

Datos de la película

  • Calidad: WEBDL
  • Audio: Español Latino AC3 2.0 iTunes - Ingles AC3 2.0 iTunes
  • Subtitulos: Español Latino SRT- FORZADOS SRT
  • Resolución: 1920x1008p
  • Formato: MKV
  • Codec: H.264
  • Encoder: CinemaniaHD
  • Mediainfo: Clic para Mostrar Datos Ver
  • La Madurez De Andy (2019) WebDL 1080p Latino.mkv
    Format                      : Matroska
    Format version              : Version 4
    File size                   : 3.30 GiB
    Duration                    : 1 h 22 min
    Overall bit rate            : 5 735 kb/s
    Movie name                  : July Rising (2019) CinemaniaHDD.Net
    Encoded date                : UTC 2021-05-27 01:30:09
    Writing application         : mkvmerge v56.1.0 ('My Friend') 64-bit
    Writing library             : libebml v1.4.2 + libmatroska v1.6.4
    Attachments                 : CINEMANIAHD.png

    Video
    ID                          : 1
    Format                      : AVC
    Format/Info                 : Advanced Video Codec
    Format profile              : High@L4
    Format settings             : CABAC / 4 Ref Frames
    Format settings, CABAC      : Yes
    Format settings, Reference  : 4 frames
    Codec ID                    : V_MPEG4/ISO/AVC
    Duration                    : 1 h 22 min
    Bit rate                    : 5 221 kb/s
    Width                       : 1 920 pixels
    Height                      : 1 008 pixels
    Display aspect ratio        : 1.905
    Frame rate mode             : Constant
    Frame rate                  : 23.976 FPS
    Color space                 : YUV
    Chroma subsampling          : 4:2:0
    Bit depth                   : 8 bits
    Scan type                   : Progressive
    Bits/(Pixel*Frame)          : 0.113
    Stream size                 : 3.01 GiB (91%)
    Title                       : WEB HD1080p [CinemaniaHDD]
    Language                    : English
    Default                     : Yes
    Forced                      : No
    Color range                 : Limited
    Color primaries             : BT.709
    Transfer characteristics    : BT.709
    Matrix coefficients         : BT.709

    Audio #1
    ID                          : 2
    Format                      : AC-3
    Format/Info                 : Audio Coding 3
    Commercial name             : Dolby Digital
    Codec ID                    : A_AC3
    Duration                    : 1 h 22 min
    Bit rate mode               : Constant
    Bit rate                    : 256 kb/s
    Channel(s)                  : 2 channels
    Channel layout              : L R
    Sampling rate               : 48.0 kHz
    Frame rate                  : 31.250 FPS (1536 SPF)
    Compression mode            : Lossy
    Delay relative to video     : -20 ms
    Stream size                 : 151 MiB (4%)
    Title                       : Español Latino [CinemaniaHDD]
    Language                    : Spanish
    Service kind                : Complete Main
    Default                     : Yes
    Forced                      : No

    Audio #2
    ID                          : 3
    Format                      : AC-3
    Format/Info                 : Audio Coding 3
    Commercial name             : Dolby Digital
    Codec ID                    : A_AC3
    Duration                    : 1 h 22 min
    Bit rate mode               : Constant
    Bit rate                    : 256 kb/s
    Channel(s)                  : 2 channels
    Channel layout              : L R
    Sampling rate               : 48.0 kHz
    Frame rate                  : 31.250 FPS (1536 SPF)
    Compression mode            : Lossy
    Delay relative to video     : -20 ms
    Stream size                 : 151 MiB (4%)
    Title                       : Ingles [CinemaniaHDD]
    Language                    : English
    Service kind                : Complete Main
    Default                     : No
    Forced                      : No

    Text #1
    ID                          : 4
    Format                      : UTF-8
    Codec ID                    : S_TEXT/UTF8
    Codec ID/Info               : UTF-8 Plain Text
    Duration                    : 7 s 0 ms
    Bit rate                    : 20 b/s
    Count of elements           : 1
    Stream size                 : 18.0 Bytes (0%)
    Title                       : Forzados-SRT [CinemaniaHDD]
    Language                    : Spanish
    Default                     : Yes
    Forced                      : No

    Text #2
    ID                          : 5
    Format                      : UTF-8
    Codec ID                    : S_TEXT/UTF8
    Codec ID/Info               : UTF-8 Plain Text
    Duration                    : 1 h 20 min
    Bit rate                    : 42 b/s
    Count of elements           : 724
    Stream size                 : 25.2 KiB (0%)
    Title                       : Español-SRT [CinemaniaHDD]
    Language                    : Spanish
    Default                     : No
    Forced                      : No

    Text #3
    ID                          : 6
    Format                      : UTF-8
    Codec ID                    : S_TEXT/UTF8
    Codec ID/Info               : UTF-8 Plain Text
    Duration                    : 1 h 16 min
    Bit rate                    : 44 b/s
    Count of elements           : 833
    Stream size                 : 25.2 KiB (0%)
    Title                       : Ingles-SRT [CinemaniaHDD]
    Language                    : English
    Default                     : No
    Forced                      : No

    Menu
    00:00:00.000                : 1
    00:12:05.307                : 2
    00:22:33.517                : 3
    00:33:58.034                : 4
    00:44:07.726                : 5
    00:56:03.524                : 6
    01:06:17.512                : 7
    01:17:52.705                : 8

  • Peso: 3.30 GiB

Sinopsis

Descargar La Madurez De Andy (2019) WebDL 1080p Latino. Cuando Andy, de dieciséis años, hereda el huerto de su abuelo y se convierte en la pupila de su tía de la ciudad, debe navegar por el camino hacia su futuro desde una pequeña ciudad donde la elección y la agencia nunca han sido opciones para las mujeres jóvenes.

Ficha técnica

  • Titulo original: July Rising
  • Fecha de lanzamiento: 29-03-2019
  • Director: Chauncey Crail
  • Género: Drama

Video trailer de la película

Enlaces de descarga

Rip de Bluray

Descargar La Madurez De Andy (2019) WebDL 1080p Latino




Aportes de DPeliculasHDmega la pass es:dpeliculashdmega.org Aportes de CinemaniaHD la pass es:cinemaniahdd.com
Guardado en : Drama

Películas relacionadas

descargar La Madurez De Andy (2019) WebDL 1080p Latino WEBDL 1080p gratis, La Madurez De Andy (2019) WebDL 1080p Latino WEBDL mega 1 link, La Madurez De Andy (2019) WebDL 1080p Latino WEBDL pelicula completa, descargar La Madurez De Andy (2019) WebDL 1080p Latino WEBDL gratis en mega.

La Madurez De Andy (2019) WebDL 1080p Latino pelicula full hd, La Madurez De Andy (2019) WebDL 1080p Latino mega latino, La Madurez De Andy (2019) WebDL 1080p Latino 4k latino, La Madurez De Andy (2019) WebDL 1080p Latino pelicula completa, La Madurez De Andy (2019) WebDL 1080p Latino descargar gratis, descargar La Madurez De Andy (2019) WebDL 1080p Latino pelicula latino, La Madurez De Andy (2019) WebDL 1080p Latino 1 link mega, La Madurez De Andy (2019) WebDL 1080p Latino 1 link google drive, La Madurez De Andy (2019) WebDL 1080p Latino hd 1080p latino.
Comentarios 0