×

¿Problemas para descargar con Mozilla, EDGE? Deshabilita la opción "Abrir vinculos en una pestaña nueva" tal como lo muestra ésta imagen.

La Madrastra (2022) WEB-DL 1080p Latino

56 vistas

Información de La Madrastra (2022) WEB-DL 1080p Latino

Datos de la película

  • Calidad: WEBDL
  • Audio: Español Latino AC3 2.0 WEB-DL - Ingles AC3 5.1 WEB-DL
  • Subtitulos: Español Latino SRT- FORZADOS SRT
  • Resolución: 1916x798p
  • Formato: MKV
  • Codec: H.264
  • Encoder: Melkor
  • Mediainfo: Clic para Mostrar Datos Ver
  • La Madrastra (2022) WebDL 1080p Latino.mkv
    Format                      : Matroska
    Format version              : Version 4
    File size                   : 3.63 GiB
    Duration                    : 1 h 10 min
    Overall bit rate            : 7 342 kb/s
    Movie name                  : Homebound (2022) CinemaniaHDD.Net
    Encoded date                : UTC 2022-10-19 04:13:41
    Writing application         : mkvmerge v56.1.0 ('My Friend') 64-bit
    Writing library             : libebml v1.4.2 + libmatroska v1.6.4
    Attachments                 : CINEMANIAHD.png

    Video
    ID                          : 1
    Format                      : AVC
    Format/Info                 : Advanced Video Codec
    Format profile              : High@L4
    Format settings             : CABAC / 5 Ref Frames
    Format settings, CABAC      : Yes
    Format settings, Reference  : 5 frames
    Codec ID                    : V_MPEG4/ISO/AVC
    Duration                    : 1 h 10 min
    Bit rate                    : 6 700 kb/s
    Width                       : 1 916 pixels
    Height                      : 798 pixels
    Display aspect ratio        : 2.40:1
    Frame rate mode             : Constant
    Frame rate                  : 24.000 FPS
    Color space                 : YUV
    Chroma subsampling          : 4:2:0
    Bit depth                   : 8 bits
    Scan type                   : Progressive
    Bits/(Pixel*Frame)          : 0.183
    Stream size                 : 3.32 GiB (91%)
    Title                       : Web HD1080p [CinemaniaHDD]
    Default                     : Yes
    Forced                      : Yes
    Color range                 : Limited
    Color primaries             : BT.709
    Transfer characteristics    : BT.709
    Matrix coefficients         : BT.709

    Audio #1
    ID                          : 2
    Format                      : AC-3
    Format/Info                 : Audio Coding 3
    Commercial name             : Dolby Digital
    Codec ID                    : A_AC3
    Duration                    : 1 h 10 min
    Bit rate mode               : Constant
    Bit rate                    : 256 kb/s
    Channel(s)                  : 2 channels
    Channel layout              : L R
    Sampling rate               : 48.0 kHz
    Frame rate                  : 31.250 FPS (1536 SPF)
    Compression mode            : Lossy
    Stream size                 : 130 MiB (3%)
    Title                       : Español Latino [CinemaniaHDD]
    Language                    : Spanish
    Service kind                : Complete Main
    Default                     : Yes
    Forced                      : Yes

    Audio #2
    ID                          : 3
    Format                      : AC-3
    Format/Info                 : Audio Coding 3
    Commercial name             : Dolby Digital
    Codec ID                    : A_AC3
    Duration                    : 1 h 10 min
    Bit rate mode               : Constant
    Bit rate                    : 384 kb/s
    Channel(s)                  : 6 channels
    Channel layout              : L R C LFE Ls Rs
    Sampling rate               : 48.0 kHz
    Frame rate                  : 31.250 FPS (1536 SPF)
    Compression mode            : Lossy
    Stream size                 : 195 MiB (5%)
    Title                       : Ingles [CinemaniaHDD]
    Language                    : English
    Service kind                : Complete Main
    Default                     : No
    Forced                      : No

    Text #1
    ID                          : 4
    Format                      : UTF-8
    Codec ID                    : S_TEXT/UTF8
    Codec ID/Info               : UTF-8 Plain Text
    Duration                    : 43 min 18 s
    Bit rate                    : 1 b/s
    Count of elements           : 10
    Stream size                 : 382 Bytes (0%)
    Title                       : Forzados-SRT [CinemaniaHDD]
    Language                    : Spanish
    Default                     : Yes
    Forced                      : Yes

    Text #2
    ID                          : 5
    Format                      : UTF-8
    Codec ID                    : S_TEXT/UTF8
    Codec ID/Info               : UTF-8 Plain Text
    Duration                    : 1 h 5 min
    Bit rate                    : 26 b/s
    Count of elements           : 555
    Stream size                 : 12.9 KiB (0%)
    Title                       : Español-SRT [CinemaniaHDD]
    Language                    : Spanish
    Default                     : No
    Forced                      : No

    Text #3
    ID                          : 6
    Format                      : UTF-8
    Codec ID                    : S_TEXT/UTF8
    Codec ID/Info               : UTF-8 Plain Text
    Duration                    : 1 h 8 min
    Bit rate                    : 38 b/s
    Count of elements           : 845
    Stream size                 : 19.3 KiB (0%)
    Title                       : Ingles-SRT [CinemaniaHDD]
    Language                    : English
    Default                     : No
    Forced                      : No

  • Peso: 3.63 GiB

Sinopsis

Descargar La Madrastra (2022) WEB-DL 1080p Latino. Una mujer joven llega a la casa de la familia separada de su nuevo esposo y descubre que los niños se comportan de manera cada vez más desconcertante.

Ficha técnica

Video trailer de la película

Enlaces de descarga

Rip de Bluray

Descargar La Madrastra (2022) WEB-DL 1080p Latino




Aportes de DPeliculasHDmega la pass es:dpeliculashdmega.org Aportes de CinemaniaHD la pass es:cinemaniahdd.com
Guardado en : Drama , Misterio , Terror

Películas relacionadas

descargar La Madrastra (2022) WEB-DL 1080p Latino WEBDL 1080p gratis, La Madrastra (2022) WEB-DL 1080p Latino WEBDL mega 1 link, La Madrastra (2022) WEB-DL 1080p Latino WEBDL pelicula completa, descargar La Madrastra (2022) WEB-DL 1080p Latino WEBDL gratis en mega.

La Madrastra (2022) WEB-DL 1080p Latino pelicula full hd, La Madrastra (2022) WEB-DL 1080p Latino mega latino, La Madrastra (2022) WEB-DL 1080p Latino 4k latino, La Madrastra (2022) WEB-DL 1080p Latino pelicula completa, La Madrastra (2022) WEB-DL 1080p Latino descargar gratis, descargar La Madrastra (2022) WEB-DL 1080p Latino pelicula latino, La Madrastra (2022) WEB-DL 1080p Latino 1 link mega, La Madrastra (2022) WEB-DL 1080p Latino 1 link google drive, La Madrastra (2022) WEB-DL 1080p Latino hd 1080p latino.
Comentarios 0