×

¿Problemas para descargar con Mozilla, EDGE? Deshabilita la opción "Abrir vinculos en una pestaña nueva" tal como lo muestra ésta imagen.

La lista de Schindler (1993) REMUX 1080p Latino – CMHDD

405 vistas

Información de La lista de Schindler (1993) REMUX 1080p Latino – CMHDD

Datos de la película

  • Calidad: Full 1080p
  • Audio: Español Latino DTS 5.1 BLURAY - Ingles DTS 5.1 BLURAY
  • Subtitulos: Español Latino SRT- FORZADOS SRT
  • Resolución: 1920x1080p
  • Formato: MKV
  • Codec: H.264
  • Encoder: Dracarys
  • Mediainfo: Clic para Mostrar Datos Ver
  • Format                      : Matroska
    Format version              : Version 4
    File size                   : 38.3 GiB
    Duration                    : 3 h 15 min
    Overall bit rate mode       : Variable
    Overall bit rate            : 28.1 Mb/s
    Movie name                  : La lista de Schindler (1993) REMUX 1080p Latino - CMHDD
    Encoded date                : UTC 2020-08-05 19:48:01
    Writing application         : mkvmerge v46.0.0 ('No Deeper Escape') 64-bit
    Writing library             : libebml v1.3.10 + libmatroska v1.5.2

    Video
    ID                          : 1
    Format                      : AVC
    Format/Info                 : Advanced Video Codec
    Format profile              : High@L4.1
    Format settings             : CABAC / 4 Ref Frames
    Format settings, CABAC      : Yes
    Format settings, Reference  : 4 frames
    Codec ID                    : V_MPEG4/ISO/AVC
    Duration                    : 3 h 15 min
    Bit rate mode               : Variable
    Bit rate                    : 24.9 Mb/s
    Maximum bit rate            : 35.0 Mb/s
    Width                       : 1 920 pixels
    Height                      : 1 080 pixels
    Display aspect ratio        : 16:9
    Frame rate mode             : Constant
    Frame rate                  : 23.976 (24000/1001) FPS
    Color space                 : YUV
    Chroma subsampling          : 4:2:0
    Bit depth                   : 8 bits
    Scan type                   : Progressive
    Bits/(Pixel*Frame)          : 0.501
    Stream size                 : 34.0 GiB (89%)
    Default                     : Yes
    Forced                      : No

    Audio #1
    ID                          : 2
    Format                      : DTS
    Format/Info                 : Digital Theater Systems
    Codec ID                    : A_DTS
    Duration                    : 3 h 15 min
    Bit rate mode               : Constant
    Bit rate                    : 768 kb/s
    Channel(s)                  : 6 channels
    Channel layout              : C L R Ls Rs LFE
    Sampling rate               : 48.0 kHz
    Frame rate                  : 93.750 FPS (512 SPF)
    Bit depth                   : 24 bits
    Compression mode            : Lossy
    Stream size                 : 1.05 GiB (3%)
    Language                    : Spanish
    Default                     : No
    Forced                      : No

    Audio #2
    ID                          : 3
    Format                      : DTS XLL
    Format/Info                 : Digital Theater Systems
    Commercial name             : DTS-HD Master Audio
    Codec ID                    : A_DTS
    Duration                    : 3 h 15 min
    Bit rate mode               : Variable
    Bit rate                    : 2 363 kb/s
    Channel(s)                  : 6 channels
    Channel layout              : C L R Ls Rs LFE
    Sampling rate               : 48.0 kHz
    Frame rate                  : 93.750 FPS (512 SPF)
    Bit depth                   : 24 bits
    Compression mode            : Lossless
    Stream size                 : 3.22 GiB (8%)
    Language                    : English
    Default                     : Yes
    Forced                      : No

    Text #1
    ID                          : 4
    Format                      : PGS
    Muxing mode                 : zlib
    Codec ID                    : S_HDMV/PGS
    Codec ID/Info               : Picture based subtitle format used on BDs/HD-DVDs
    Duration                    : 3 h 7 min
    Bit rate                    : 22.4 kb/s
    Count of elements           : 3032
    Stream size                 : 29.9 MiB (0%)
    Language                    : Spanish
    Default                     : No
    Forced                      : No

    Text #2
    ID                          : 5
    Format                      : PGS
    Muxing mode                 : zlib
    Codec ID                    : S_HDMV/PGS
    Codec ID/Info               : Picture based subtitle format used on BDs/HD-DVDs
    Duration                    : 3 h 7 min
    Bit rate                    : 1 182 b/s
    Count of elements           : 100
    Stream size                 : 1.58 MiB (0%)
    Title                       : Forzados
    Language                    : Spanish
    Default                     : No
    Forced                      : No

    Text #3
    ID                          : 6
    Format                      : UTF-8
    Codec ID                    : S_TEXT/UTF8
    Codec ID/Info               : UTF-8 Plain Text
    Duration                    : 3 h 7 min
    Bit rate                    : 36 b/s
    Count of elements           : 1516
    Stream size                 : 49.3 KiB (0%)
    Language                    : Spanish
    Default                     : No
    Forced                      : No

    Text #4
    ID                          : 7
    Format                      : UTF-8
    Codec ID                    : S_TEXT/UTF8
    Codec ID/Info               : UTF-8 Plain Text
    Duration                    : 3 h 7 min
    Bit rate                    : 1 b/s
    Count of elements           : 50
    Stream size                 : 2.48 KiB (0%)
    Title                       : Forzados
    Language                    : Spanish
    Default                     : Yes
    Forced                      : No

  • Peso: 38.3 GiB

Sinopsis

Oskar Schindler, un hombre de enorme astucia y talento para las relaciones públicas, organiza un ambicioso plan para ganarse la simpatía de los nazis. Después de la invasión de Polonia por los alemanes, consigue, gracias a sus relaciones con los nazis, la propiedad de una fábrica de Cracovia. Allí emplea a cientos de operarios judíos, cuya explotación le hace prosperar rápidamente. Su gerente, también judío, es el verdadero director en la sombra, pues Schindler no tiene el menor conocimiento industrial.

Ficha técnica

Video trailer de la película

Enlaces de descarga

Rip de Bluray

Descargar La lista de Schindler (1993) REMUX 1080p Latino – CMHDD




Aportes de DPeliculasHDmega la pass es:dpeliculashdmega.org Aportes de CinemaniaHD la pass es:cinemaniahdd.com
Guardado en : Bélica , Drama , Historia

Películas relacionadas

descargar La lista de Schindler (1993) REMUX 1080p Latino – CMHDD Full 1080p 1080p gratis, La lista de Schindler (1993) REMUX 1080p Latino – CMHDD Full 1080p mega 1 link, La lista de Schindler (1993) REMUX 1080p Latino – CMHDD Full 1080p pelicula completa, descargar La lista de Schindler (1993) REMUX 1080p Latino – CMHDD Full 1080p gratis en mega.

La lista de Schindler (1993) REMUX 1080p Latino – CMHDD pelicula full hd, La lista de Schindler (1993) REMUX 1080p Latino – CMHDD mega latino, La lista de Schindler (1993) REMUX 1080p Latino – CMHDD 4k latino, La lista de Schindler (1993) REMUX 1080p Latino – CMHDD pelicula completa, La lista de Schindler (1993) REMUX 1080p Latino – CMHDD descargar gratis, descargar La lista de Schindler (1993) REMUX 1080p Latino – CMHDD pelicula latino, La lista de Schindler (1993) REMUX 1080p Latino – CMHDD 1 link mega, La lista de Schindler (1993) REMUX 1080p Latino – CMHDD 1 link google drive, La lista de Schindler (1993) REMUX 1080p Latino – CMHDD hd 1080p latino.
Comentarios 2
  • ocpgaiden - 07 agosto, 2020

    Ojala tambén subal el pianista bdremux, saludos

  • ocpgaiden - 07 agosto, 2020

    Gracias y saludos