×

¿Problemas para descargar con Mozilla, EDGE? Deshabilita la opción "Abrir vinculos en una pestaña nueva" tal como lo muestra ésta imagen.

La lista de Schindler (1993) HD 1080p Latino – CMHDD

417 vistas

Información de La lista de Schindler (1993) HD 1080p Latino – CMHDD

Datos de la película

  • Calidad:
  • Audio: Español Latino AC3 5.1 BLURAY - Ingles AC3 5.1 BLURAY
  • Subtitulos: Español Latino SRT- FORZADOS SRT
  • Resolución: 1920x1040p
  • Formato: MKV
  • Codec: H.264
  • Encoder: Dracarys
  • Mediainfo: Clic para Mostrar Datos Ver
  • Format                      : Matroska
    Format version              : Version 4
    File size                   : 6.47 GiB
    Duration                    : 3 h 15 min
    Overall bit rate            : 4 746 kb/s
    Movie name                  : La lista de Schindler (1993) HD 1080p Latino - CMHDD
    Encoded date                : UTC 2020-08-05 19:52:32
    Writing application         : mkvmerge v46.0.0 ('No Deeper Escape') 64-bit
    Writing library             : libebml v1.3.10 + libmatroska v1.5.2

    Video
    ID                          : 1
    Format                      : AVC
    Format/Info                 : Advanced Video Codec
    Format profile              : High@L4.1
    Format settings             : CABAC / 4 Ref Frames
    Format settings, CABAC      : Yes
    Format settings, Reference  : 4 frames
    Codec ID                    : V_MPEG4/ISO/AVC
    Duration                    : 3 h 15 min
    Bit rate                    : 3 500 kb/s
    Width                       : 1 920 pixels
    Height                      : 1 040 pixels
    Display aspect ratio        : 1.85:1
    Frame rate mode             : Constant
    Frame rate                  : 23.976 (24000/1001) FPS
    Color space                 : YUV
    Chroma subsampling          : 4:2:0
    Bit depth                   : 8 bits
    Scan type                   : Progressive
    Bits/(Pixel*Frame)          : 0.073
    Stream size                 : 4.72 GiB (73%)
    Writing library             : x264 core 157 r2935 545de2f
    Encoding settings           : cabac=1 / ref=4 / deblock=1:0:0 / analyse=0x3:0x113 / me=hex / subme=8 / psy=1 / psy_rd=1.00:0.00 / mixed_ref=1 / me_range=16 / chroma_me=1 / trellis=2 / 8x8dct=1 / cqm=0 / deadzone=21,11 / fast_pskip=1 / chroma_qp_offset=-2 / threads=24 / lookahead_threads=4 / sliced_threads=0 / nr=0 / decimate=1 / interlaced=0 / bluray_compat=0 / constrained_intra=0 / bframes=3 / b_pyramid=2 / b_adapt=1 / b_bias=0 / direct=3 / weightb=1 / open_gop=0 / weightp=2 / keyint=240 / keyint_min=24 / scenecut=40 / intra_refresh=0 / rc_lookahead=50 / rc=abr / mbtree=1 / bitrate=3500 / ratetol=1.0 / qcomp=0.60 / qpmin=0 / qpmax=69 / qpstep=4 / vbv_maxrate=62500 / vbv_bufsize=78125 / nal_hrd=none / filler=0 / ip_ratio=1.40 / aq=1:1.00
    Default                     : Yes
    Forced                      : No
    Color range                 : Limited
    Color primaries             : BT.709
    Transfer characteristics    : BT.709
    Matrix coefficients         : BT.709

    Audio #1
    ID                          : 2
    Format                      : AC-3
    Format/Info                 : Audio Coding 3
    Commercial name             : Dolby Digital
    Codec ID                    : A_AC3
    Duration                    : 3 h 15 min
    Bit rate mode               : Constant
    Bit rate                    : 640 kb/s
    Channel(s)                  : 6 channels
    Channel layout              : L R C LFE Ls Rs
    Sampling rate               : 48.0 kHz
    Frame rate                  : 31.250 FPS (1536 SPF)
    Compression mode            : Lossy
    Delay relative to video     : -5 ms
    Stream size                 : 894 MiB (13%)
    Language                    : Spanish
    Service kind                : Complete Main
    Default                     : Yes
    Forced                      : No

    Audio #2
    ID                          : 3
    Format                      : AC-3
    Format/Info                 : Audio Coding 3
    Commercial name             : Dolby Digital
    Codec ID                    : A_AC3
    Duration                    : 3 h 15 min
    Bit rate mode               : Constant
    Bit rate                    : 640 kb/s
    Channel(s)                  : 6 channels
    Channel layout              : L R C LFE Ls Rs
    Sampling rate               : 48.0 kHz
    Frame rate                  : 31.250 FPS (1536 SPF)
    Compression mode            : Lossy
    Delay relative to video     : -5 ms
    Stream size                 : 894 MiB (13%)
    Language                    : English
    Service kind                : Complete Main
    Default                     : No
    Forced                      : No

    Text #1
    ID                          : 4
    Format                      : UTF-8
    Codec ID                    : S_TEXT/UTF8
    Codec ID/Info               : UTF-8 Plain Text
    Duration                    : 3 h 7 min
    Bit rate                    : 1 b/s
    Count of elements           : 50
    Stream size                 : 2.48 KiB (0%)
    Title                       : Forzados
    Language                    : Spanish
    Default                     : Yes
    Forced                      : No

    Text #2
    ID                          : 5
    Format                      : UTF-8
    Codec ID                    : S_TEXT/UTF8
    Codec ID/Info               : UTF-8 Plain Text
    Duration                    : 3 h 7 min
    Bit rate                    : 36 b/s
    Count of elements           : 1516
    Stream size                 : 49.3 KiB (0%)
    Title                       : Completos
    Language                    : Spanish
    Default                     : No
    Forced                      : No

    Menu
    00:00:00.000                : :Chapter 1
    00:03:23.161                : :Chapter 2
    00:10:12.153                : :Chapter 3
    00:14:51.307                : :Chapter 4
    00:17:28.714                : :Chapter 5
    00:21:42.384                : :Chapter 6
    00:23:48.010                : :Chapter 7
    00:30:37.669                : :Chapter 8
    00:34:23.728                : :Chapter 9
    00:41:43.751                : :Chapter 10
    00:44:16.737                : :Chapter 11
    00:50:55.761                : :Chapter 12
    00:55:09.431                : :Chapter 13
    00:56:44.860                : :Chapter 14
    01:13:44.754                : :Chapter 15
    01:17:05.704                : :Chapter 16
    01:26:02.115                : :Chapter 17
    01:29:26.319                : :Chapter 18
    01:32:01.182                : :Chapter 19
    01:38:36.869                : :Chapter 20
    01:43:19.777                : :Chapter 21
    01:49:36.612                : :Chapter 22
    01:55:45.981                : :Chapter 23
    01:58:42.824                : :Chapter 24
    02:02:59.789                : :Chapter 25
    02:06:49.310                : :Chapter 26
    02:10:11.637                : :Chapter 27
    02:13:44.725                : :Chapter 28
    02:18:21.376                : :Chapter 29
    02:26:46.506                : :Chapter 30
    02:34:15.621                : :Chapter 31
    02:38:48.019                : :Chapter 32
    02:41:15.416                : :Chapter 33
    02:46:21.763                : :Chapter 34
    02:48:12.332                : :Chapter 35
    02:50:23.046                : :Chapter 36
    02:55:28.393                : :Chapter 37
    03:01:50.525                : :Chapter 38
    03:05:06.470                : :Chapter 39
    03:08:50.820                : :Chapter 40

  • Peso: 6.47 GiB

Sinopsis

Oskar Schindler, un hombre de enorme astucia y talento para las relaciones públicas, organiza un ambicioso plan para ganarse la simpatía de los nazis. Después de la invasión de Polonia por los alemanes, consigue, gracias a sus relaciones con los nazis, la propiedad de una fábrica de Cracovia. Allí emplea a cientos de operarios judíos, cuya explotación le hace prosperar rápidamente. Su gerente, también judío, es el verdadero director en la sombra, pues Schindler no tiene el menor conocimiento industrial.

Ficha técnica

Video trailer de la película

Enlaces de descarga

Rip de Bluray

Descargar La lista de Schindler (1993) HD 1080p Latino – CMHDD




Aportes de DPeliculasHDmega la pass es:dpeliculashdmega.org Aportes de CinemaniaHD la pass es:cinemaniahdd.com
Guardado en : Bélica , Drama , HD 1080p , Historia

Películas relacionadas

descargar La lista de Schindler (1993) HD 1080p Latino – CMHDD 1080p gratis, La lista de Schindler (1993) HD 1080p Latino – CMHDD mega 1 link, La lista de Schindler (1993) HD 1080p Latino – CMHDD pelicula completa, descargar La lista de Schindler (1993) HD 1080p Latino – CMHDD gratis en mega.

La lista de Schindler (1993) HD 1080p Latino – CMHDD pelicula full hd, La lista de Schindler (1993) HD 1080p Latino – CMHDD mega latino, La lista de Schindler (1993) HD 1080p Latino – CMHDD 4k latino, La lista de Schindler (1993) HD 1080p Latino – CMHDD pelicula completa, La lista de Schindler (1993) HD 1080p Latino – CMHDD descargar gratis, descargar La lista de Schindler (1993) HD 1080p Latino – CMHDD pelicula latino, La lista de Schindler (1993) HD 1080p Latino – CMHDD 1 link mega, La lista de Schindler (1993) HD 1080p Latino – CMHDD 1 link google drive, La lista de Schindler (1993) HD 1080p Latino – CMHDD hd 1080p latino.
Comentarios 0