La lista de Schindler (1993) Full HD 1080p Latino – CMHDD

100 vistas
1 estrella2 estrellas3 estrellas4 estrellas5 estrellas (Ninguna valoración todavía)
Cargando...

Información de La lista de Schindler (1993) Full HD 1080p Latino – CMHDD

Datos de la película

  • Calidad: Full 1080p
  • Audio: Español Latino DTS 5.1 BLURAY - Ingles DTS 5.1 BLURAY
  • Subtitulos: Español Latino SRT- FORZADOS SRT
  • Resolución: 1920x1080p
  • Formato: MKV
  • Codec: H.264
  • Encoder: Dracarys
  • Mediainfo: Clic para Mostrar Datos Ver
  • Format                      : Matroska
    Format version              : Version 4
    File size                   : 14.6 GiB
    Duration                    : 3 h 15 min
    Overall bit rate            : 10.7 Mb/s
    Movie name                  : La lista de Schindler (1993) Full HD 1080p Latino - CMHDD
    Encoded date                : UTC 2020-08-05 19:51:18 / UTC 2017-10-20T18:57:42Z
    Writing application         : mkvmerge v46.0.0 ('No Deeper Escape') 64-bit
    Writing library             : libebml v1.3.10 + libmatroska v1.5.2 / Lavf57.7.2

    Video
    ID                          : 1
    Format                      : AVC
    Format/Info                 : Advanced Video Codec
    Format profile              : High@L4.1
    Format settings             : CABAC / 4 Ref Frames
    Format settings, CABAC      : Yes
    Format settings, Reference  : 4 frames
    Codec ID                    : V_MPEG4/ISO/AVC
    Duration                    : 3 h 15 min
    Bit rate                    : 8 203 kb/s
    Width                       : 1 920 pixels
    Height                      : 1 080 pixels
    Display aspect ratio        : 16:9
    Frame rate mode             : Constant
    Frame rate                  : 23.976 (24000/1001) FPS
    Color space                 : YUV
    Chroma subsampling          : 4:2:0
    Bit depth                   : 8 bits
    Scan type                   : Progressive
    Bits/(Pixel*Frame)          : 0.165
    Stream size                 : 11.2 GiB (77%)
    Writing library             : x264 core 148 r2708 86b7198
    Encoding settings           : cabac=1 / ref=4 / deblock=1:0:0 / analyse=0x3:0x133 / me=esa / subme=10 / psy=1 / psy_rd=1.00:0.00 / mixed_ref=1 / me_range=24 / chroma_me=1 / trellis=2 / 8x8dct=1 / cqm=0 / deadzone=21,11 / fast_pskip=1 / chroma_qp_offset=-2 / threads=34 / lookahead_threads=5 / sliced_threads=0 / nr=0 / decimate=1 / interlaced=0 / bluray_compat=0 / constrained_intra=0 / bframes=8 / b_pyramid=2 / b_adapt=2 / b_bias=0 / direct=3 / weightb=1 / open_gop=0 / weightp=2 / keyint=240 / keyint_min=24 / scenecut=40 / intra_refresh=0 / rc_lookahead=60 / rc=crf / mbtree=1 / crf=20.0 / qcomp=0.60 / qpmin=0 / qpmax=69 / qpstep=4 / vbv_maxrate=62500 / vbv_bufsize=78125 / crf_max=0.0 / nal_hrd=none / filler=0 / ip_ratio=1.40 / aq=1:1.00
    Language                    : English
    Default                     : Yes
    Forced                      : No
    Color range                 : Limited
    Color primaries             : BT.709
    Transfer characteristics    : BT.709
    Matrix coefficients         : BT.709
    Statistics Tags Issue       : mkvmerge v46.0.0 ('No Deeper Escape') 64-bit 2020-08-05 19:51:18 / mkvmerge v46.0.0 ('No Deeper Escape') 64-bit 2020-08-05 19:51:18 / UTC 2017-10-20T18:57:42Z
    FromStats_BitRate           : 8406301
    FromStats_Duration          : 03:15:12.660000000
    FromStats_FrameCount        : 280823
    FromStats_StreamSize        : 12307518581
    Duration_Source             : General_Duration

    Audio #1
    ID                          : 2
    Format                      : DTS
    Format/Info                 : Digital Theater Systems
    Codec ID                    : A_DTS
    Duration                    : 3 h 15 min
    Bit rate mode               : Constant
    Bit rate                    : 768 kb/s
    Channel(s)                  : 6 channels
    Channel layout              : C L R Ls Rs LFE
    Sampling rate               : 48.0 kHz
    Frame rate                  : 93.750 FPS (512 SPF)
    Bit depth                   : 24 bits
    Compression mode            : Lossy
    Stream size                 : 1.05 GiB (7%)
    Title                       : Latino-DTS
    Language                    : Spanish
    Default                     : Yes
    Forced                      : No
    Statistics Tags Issue       : mkvmerge v46.0.0 ('No Deeper Escape') 64-bit 2020-08-05 19:51:18 / mkvmerge v46.0.0 ('No Deeper Escape') 64-bit 2020-08-05 19:51:18 / UTC 2017-10-20T18:57:42Z
    FromStats_BitRate           : 767999
    FromStats_Duration          : 03:15:12.694000000
    FromStats_FrameCount        : 1098065
    FromStats_StreamSize        : 1124418560
    Duration_Source             : General_Duration

    Audio #2
    ID                          : 3
    Format                      : DTS
    Format/Info                 : Digital Theater Systems
    Codec ID                    : A_DTS
    Duration                    : 3 h 15 min
    Bit rate mode               : Constant
    Bit rate                    : 1 509 kb/s
    Channel(s)                  : 6 channels
    Channel layout              : C L R Ls Rs LFE
    Sampling rate               : 48.0 kHz
    Frame rate                  : 93.750 FPS (512 SPF)
    Bit depth                   : 24 bits
    Compression mode            : Lossy
    Stream size                 : 2.06 GiB (14%)
    Title                       : Ingles-DTS
    Language                    : English
    Default                     : No
    Forced                      : No
    Statistics Tags Issue       : mkvmerge v46.0.0 ('No Deeper Escape') 64-bit 2020-08-05 19:51:18 / mkvmerge v46.0.0 ('No Deeper Escape') 64-bit 2020-08-05 19:51:18 / UTC 2017-10-20T18:57:42Z
    FromStats_BitRate           : 1508999
    FromStats_Duration          : 03:15:12.694000000
    FromStats_FrameCount        : 1098065
    FromStats_StreamSize        : 2209306780
    Duration_Source             : General_Duration

    Text #1
    ID                          : 4
    Format                      : UTF-8
    Codec ID                    : S_TEXT/UTF8
    Codec ID/Info               : UTF-8 Plain Text
    Title                       : Forzados
    Language                    : Spanish
    Default                     : Yes
    Forced                      : No
    Statistics Tags Issue       : mkvmerge v46.0.0 ('No Deeper Escape') 64-bit 2020-08-05 19:51:18 / mkvmerge v46.0.0 ('No Deeper Escape') 64-bit 2020-08-05 19:51:18 / UTC 2017-10-20T18:57:42Z
    FromStats_BitRate           : 1
    FromStats_Duration          : 03:07:34.928000000
    FromStats_FrameCount        : 57
    FromStats_StreamSize        : 2753

    Text #2
    ID                          : 5
    Format                      : UTF-8
    Codec ID                    : S_TEXT/UTF8
    Codec ID/Info               : UTF-8 Plain Text
    Title                       : Completos
    Language                    : Spanish
    Default                     : No
    Forced                      : No
    Statistics Tags Issue       : mkvmerge v46.0.0 ('No Deeper Escape') 64-bit 2020-08-05 19:51:18 / mkvmerge v46.0.0 ('No Deeper Escape') 64-bit 2020-08-05 19:51:18 / UTC 2017-10-20T18:57:42Z
    FromStats_BitRate           : 36
    FromStats_Duration          : 03:07:03.128000000
    FromStats_FrameCount        : 1516
    FromStats_StreamSize        : 50519

    Text #3
    ID                          : 6
    Format                      : PGS
    Muxing mode                 : zlib
    Codec ID                    : S_HDMV/PGS
    Codec ID/Info               : Picture based subtitle format used on BDs/HD-DVDs
    Title                       : Español
    Language                    : Spanish
    Default                     : No
    Forced                      : No
    Statistics Tags Issue       : mkvmerge v46.0.0 ('No Deeper Escape') 64-bit 2020-08-05 19:51:18 / mkvmerge v46.0.0 ('No Deeper Escape') 64-bit 2020-08-05 19:51:18 / UTC 2017-10-20T18:57:42Z
    FromStats_BitRate           : 22375
    FromStats_Duration          : 03:07:03.128000000
    FromStats_FrameCount        : 3032
    FromStats_StreamSize        : 31390500

  • Peso: 14.6 GiB

Sinopsis

Oskar Schindler, un hombre de enorme astucia y talento para las relaciones públicas, organiza un ambicioso plan para ganarse la simpatía de los nazis. Después de la invasión de Polonia por los alemanes, consigue, gracias a sus relaciones con los nazis, la propiedad de una fábrica de Cracovia. Allí emplea a cientos de operarios judíos, cuya explotación le hace prosperar rápidamente. Su gerente, también judío, es el verdadero director en la sombra, pues Schindler no tiene el menor conocimiento industrial.

Ficha técnica

Video trailer de la película

Enlaces de descarga

Rip de Bluray

Descargar La lista de Schindler (1993) Full HD 1080p Latino – CMHDD




Aportes de DPeliculasHDmega la pass es:dpeliculashdmega.org Aportes de CinemaniaHD la pass es:cinemaniahdd.com

Películas relacionadas

Comentarios 1
  • ocpgaiden - 07 agosto, 2020

    Gracias por La lista de Schindler Full hd, saludos