×

¿Problemas para descargar con Mozilla, EDGE? Deshabilita la opción "Abrir vinculos en una pestaña nueva" tal como lo muestra ésta imagen.

La liga de los 5 (2019) WEB-DL 1080p Latino

1.210 vistas

Información de La liga de los 5 (2019) WEB-DL 1080p Latino

Datos de la película

  • Calidad: WEBDL
  • Audio: Español Latino AC3 5.1 iTunes
  • Subtitulos: No
  • Resolución: 1912x1072
  • Formato: MKV
  • Codec: H.264
  • Encoder: cinemaniahd
  • Mediainfo: Clic para Mostrar Datos Ver
  • La Liga de Los 5 (2019) WEB-DL 1080p Latino.mkv
    Format                      : Matroska
    Format version              : Version 4
    File size                   : 3.36 GiB
    Duration                    : 1 h 29 min
    Overall bit rate            : 5 388 kb/s
    Encoded date                : UTC 2020-04-09 15:34:24
    Writing application         : mkvmerge v42.0.0 ('Overtime') 64-bit
    Writing library             : libebml v1.3.10 + libmatroska v1.5.2

    Video
    ID                          : 1
    Format                      : AVC
    Format/Info                 : Advanced Video Codec
    Format profile              : High@L4
    Format settings             : CABAC / 4 Ref Frames
    Format settings, CABAC      : Yes
    Format settings, ReFrames   : 4 frames
    Codec ID                    : V_MPEG4/ISO/AVC
    Duration                    : 1 h 29 min
    Bit rate                    : 5 002 kb/s
    Width                       : 1 912 pixels
    Height                      : 1 072 pixels
    Display aspect ratio        : 16:9
    Frame rate mode             : Constant
    Frame rate                  : 23.976 FPS
    Color space                 : YUV
    Chroma subsampling          : 4:2:0
    Bit depth                   : 8 bits
    Scan type                   : Progressive
    Bits/(Pixel*Frame)          : 0.102
    Stream size                 : 3.12 GiB (93%)
    Language                    : English
    Default                     : Yes
    Forced                      : No
    Color range                 : Limited
    Color primaries             : BT.709
    Transfer characteristics    : BT.709
    Matrix coefficients         : BT.709

    Audio
    ID                          : 2
    Format                      : AC-3
    Format/Info                 : Audio Coding 3
    Commercial name             : Dolby Digital
    Codec ID                    : A_AC3
    Duration                    : 1 h 29 min
    Bit rate mode               : Constant
    Bit rate                    : 384 kb/s
    Channel(s)                  : 6 channels
    Channel layout              : L R C LFE Ls Rs
    Sampling rate               : 48.0 kHz
    Frame rate                  : 31.250 FPS (1536 SPF)
    Bit depth                   : 16 bits
    Compression mode            : Lossy
    Stream size                 : 245 MiB (7%)
    Language                    : Spanish
    Service kind                : Complete Main
    Default                     : Yes
    Forced                      : No

    Menu
    00:00:00.000                : en:1
    00:13:23.428                : en:2
    00:26:37.847                : en:3
    00:39:30.411                : en:4
    00:52:12.047                : en:5
    01:07:06.232                : en:6
    01:18:16.277                : en:7

  • Peso: 3.36 GiB

Sinopsis

Un grupo de superhéroes mexicanos decide unir fuerzas para combatir las fuerzas del mal.

Ficha técnica

Video trailer de la película

Enlaces de descarga

Rip de Bluray

Descargar La liga de los 5 (2019) WEB-DL 1080p Latino




Aportes de DPeliculasHDmega la pass es:dpeliculashdmega.org Aportes de CinemaniaHD la pass es:cinemaniahdd.com
Guardado en : Acción , Animación , Comedia

Películas relacionadas

  • El Cuartel Secreto (2022) WEB-DL 4K UHD HDR Latino

    El Cuartel Secreto (2022) WEB-DL 4K UHD HDR Latino

    2022
    El Cuartel Secreto (2022) WEB-DL 4K UHD HDR Latino

    1h 44m 2022

    Descargar El Cuartel Secreto (2022) WEB-DL 4K UHD HDR Latino. Mientras pasan el rato después de la escuela,...

    Director: Henry Joost

    Género: 4K HDR

    Actores: Zeb Slone

  • El Cuartel Secreto (2022) WEB-DL 1080p Latino

    El Cuartel Secreto (2022) WEB-DL 1080p Latino

    2022
    El Cuartel Secreto (2022) WEB-DL 1080p Latino

    1h 44m 2022

    Descargar El Cuartel Secreto (2022) WEB-DL 1080p Latino. Mientras pasan el rato después de la escuela,...

    Director: Henry Joost

    Género: Acción

    Actores: Zeb Slone

  • Men in Black (1997) REMUX 4K HDR Latino – CMHDD

    Men in Black (1997) REMUX 4K HDR Latino – CMHDD

    1997
    Men in Black (1997) REMUX 4K HDR Latino – CMHDD

    1h 34m 1997

    Durante muchos años los extraterrestres han vivido en la Tierra, mezclados con los humanos, sin que...

    Director: Tyrone S. Walker

    Género: Acción

    Actores: Willie C. Carpenter

  • Tren Bala (2022) WEB-DL 4K UHD HDR Latino

    Tren Bala (2022) WEB-DL 4K UHD HDR Latino

    2022
    Tren Bala (2022) WEB-DL 4K UHD HDR Latino

    2h 7m 2022

    Descargar Tren Bala (2022) WEB-DL 4K UHD HDR Latino. El desafortunado asesino "Catarina" está decidido...

    Director: Paul Barry

    Género: 4K HDR

    Actores: Zooey Miyoshi

descargar La liga de los 5 (2019) WEB-DL 1080p Latino WEBDL 1080p gratis, La liga de los 5 (2019) WEB-DL 1080p Latino WEBDL mega 1 link, La liga de los 5 (2019) WEB-DL 1080p Latino WEBDL pelicula completa, descargar La liga de los 5 (2019) WEB-DL 1080p Latino WEBDL gratis en mega.

La liga de los 5 (2019) WEB-DL 1080p Latino pelicula full hd, La liga de los 5 (2019) WEB-DL 1080p Latino mega latino, La liga de los 5 (2019) WEB-DL 1080p Latino 4k latino, La liga de los 5 (2019) WEB-DL 1080p Latino pelicula completa, La liga de los 5 (2019) WEB-DL 1080p Latino descargar gratis, descargar La liga de los 5 (2019) WEB-DL 1080p Latino pelicula latino, La liga de los 5 (2019) WEB-DL 1080p Latino 1 link mega, La liga de los 5 (2019) WEB-DL 1080p Latino 1 link google drive, La liga de los 5 (2019) WEB-DL 1080p Latino hd 1080p latino.
Comentarios 0