La Liga de la Justicia vs Los Cinco Fatales (2019) REMUX 1080p Latino

229 vistas
1 estrella2 estrellas3 estrellas4 estrellas5 estrellas (Ninguna valoración todavía)
Cargando…

Información de La Liga de la Justicia vs Los Cinco Fatales (2019) REMUX 1080p Latino

Datos de la película

  • Calidad: Full 1080p
  • Audio: Español Latino AC3 5.1 BLURAY - Ingles DTS 5.1 BLURAY
  • Subtitulos: Español Latino PGS - Ingles PGS
  • Resolución: 1920x1080
  • Formato: MKV
  • Codec: H.264
  • Encoder: Chesse92
  • Mediainfo: Clic para Mostrar Datos Ver
  • Justice League vs  the Fatal Five (2019) REMUX 1080p Latino.mkv
    Format                      : Matroska
    Format version              : Version 4
    File size                   : 10.8 GiB
    Duration                    : 1 h 17 min
    Overall bit rate mode       : Variable
    Overall bit rate            : 19.9 Mb/s
    Movie name                  : CinemaniaHDD.net
    Encoded date                : UTC 2019-04-16 20:22:12
    Writing application         : mkvmerge v30.1.0 ('Forever And More') 64-bit
    Writing library             : libebml v1.3.6 + libmatroska v1.4.9
    Cover                       : Yes
    Attachments                 : cover_land.jpg / small_cover.jpg / small_cover_land.jpg / cover.jpg

    Video
    ID                          : 1
    Format                      : AVC
    Format/Info                 : Advanced Video Codec
    Format profile              : [email protected]
    Format settings             : CABAC / 4 Ref Frames
    Format settings, CABAC      : Yes
    Format settings, ReFrames   : 4 frames
    Format settings, GOP        : M=1, N=12
    Codec ID                    : V_MPEG4/ISO/AVC
    Duration                    : 1 h 17 min
    Bit rate mode               : Variable
    Bit rate                    : 17.0 Mb/s
    Maximum bit rate            : 38.0 Mb/s
    Width                       : 1 920 pixels
    Height                      : 1 080 pixels
    Display aspect ratio        : 16:9
    Frame rate mode             : Constant
    Frame rate                  : 23.976 (24000/1001) FPS
    Color space                 : YUV
    Chroma subsampling          : 4:2:0
    Bit depth                   : 8 bits
    Scan type                   : Progressive
    Bits/(Pixel*Frame)          : 0.342
    Stream size                 : 9.19 GiB (85%)
    Language                    : English
    Default                     : No
    Forced                      : No

    Audio #1
    ID                          : 2
    Format                      : AC-3
    Format/Info                 : Audio Coding 3
    Commercial name             : Dolby Digital
    Codec ID                    : A_AC3
    Duration                    : 1 h 17 min
    Bit rate mode               : Constant
    Bit rate                    : 640 kb/s
    Channel(s)                  : 6 channels
    Channel layout              : L R C LFE Ls Rs
    Sampling rate               : 48.0 kHz
    Frame rate                  : 31.250 FPS (1536 SPF)
    Bit depth                   : 16 bits
    Compression mode            : Lossy
    Stream size                 : 355 MiB (3%)
    Language                    : Spanish
    Service kind                : Complete Main
    Default                     : Yes
    Forced                      : No

    Audio #2
    ID                          : 3
    Format                      : DTS XLL
    Format/Info                 : Digital Theater Systems
    Commercial name             : DTS-HD Master Audio
    Codec ID                    : A_DTS
    Duration                    : 1 h 17 min
    Bit rate mode               : Variable
    Bit rate                    : 2 271 kb/s
    Channel(s)                  : 6 channels
    Channel layout              : C L R Ls Rs LFE
    Sampling rate               : 48.0 kHz
    Frame rate                  : 93.750 FPS (512 SPF)
    Bit depth                   : 24 bits
    Compression mode            : Lossless
    Stream size                 : 1.23 GiB (11%)
    Language                    : English
    Default                     : No
    Forced                      : No

    Text #1
    ID                          : 4
    Format                      : PGS
    Muxing mode                 : zlib
    Codec ID                    : S_HDMV/PGS
    Codec ID/Info               : Picture based subtitle format used on BDs/HD-DVDs
    Duration                    : 1 h 16 min
    Bit rate                    : 21.9 kb/s
    Count of elements           : 1342
    Stream size                 : 12.0 MiB (0%)
    Language                    : Spanish
    Default                     : No
    Forced                      : No

    Text #2
    ID                          : 5
    Format                      : PGS
    Muxing mode                 : zlib
    Codec ID                    : S_HDMV/PGS
    Codec ID/Info               : Picture based subtitle format used on BDs/HD-DVDs
    Duration                    : 1 h 16 min
    Bit rate                    : 27.5 kb/s
    Count of elements           : 1774
    Stream size                 : 15.1 MiB (0%)
    Title                       : English-PGS
    Language                    : English
    Default                     : No
    Forced                      : No

    Text #3
    ID                          : 6
    Format                      : PGS
    Muxing mode                 : zlib
    Codec ID                    : S_HDMV/PGS
    Codec ID/Info               : Picture based subtitle format used on BDs/HD-DVDs
    Duration                    : 1 h 14 min
    Bit rate                    : 183 b/s
    Count of elements           : 12
    Stream size                 : 100 KiB (0%)
    Language                    : Spanish
    Default                     : No
    Forced                      : No

    Text #4
    ID                          : 7
    Format                      : UTF-8
    Codec ID                    : S_TEXT/UTF8
    Codec ID/Info               : UTF-8 Plain Text
    Duration                    : 1 h 13 min
    Bit rate                    : 39 b/s
    Count of elements           : 668
    Stream size                 : 21.4 KiB (0%)
    Language                    : Spanish
    Default                     : No
    Forced                      : No

    Text #5
    ID                          : 8
    Format                      : UTF-8
    Codec ID                    : S_TEXT/UTF8
    Codec ID/Info               : UTF-8 Plain Text
    Duration                    : 16 min 42 s
    Bit rate                    : 1 b/s
    Count of elements           : 5
    Stream size                 : 126 Bytes (0%)
    Language                    : Spanish
    Default                     : Yes
    Forced                      : No

    Menu
    00:00:00.000                : en:Chapter 01
    00:10:46.395                : en:Chapter 02
    00:21:41.091                : en:Chapter 03
    00:31:03.862                : en:Chapter 04
    00:42:55.322                : en:Chapter 05
    00:54:12.791                : en:Chapter 06
    01:03:17.835                : en:Chapter 07
    01:14:21.457                : en:Chapter 08

  • Peso: 10.8 GiB

Sinopsis

La Liga de la Justicia se enfrenta a una nueva y poderosa amenaza: ¡los Cinco Fatal! Superman, Batman y Wonder Woman buscan respuestas mientras el trío de Mano, Persuader y Tharok aterrorizan a Metropolis en busca de la linterna verde en ciernes, Jessica Cruz. Con su ayuda involuntaria, pretenden liberar a los miembros restantes de Fatal Five, Emerald Empress y Validus, para llevar a cabo su siniestro plan. Pero la Liga de la Justicia también ha descubierto un aliado de otro momento en el peculiar Star Boy, lleno de poder volátil, ¿podría ser la clave para frustrar a los Fatal Five? ¡Una batalla épica contra el mal final te espera!

Ficha técnica

  • Titulo original: Justice League vs. the Fatal Five
  • Fecha de lanzamiento: 30-03-2019 (United States of America)
  • Director: Sam Liu
  • Género: Acción, Animación, Ciencia ficción, Remux
  • Puntuación: 0.0 0 votos
  • Duración:
    1h 10m

Video trailer de la película

Enlaces de descarga

Rip de Bluray

Descargar La Liga de la Justicia vs Los Cinco Fatales (2019) REMUX 1080p Latino




Aportes de DPeliculasHDmega la pass es:dpeliculashdmega.org Aportes de CinemaniaHD la pass es:cinemaniahdd.com

Películas relacionadas

Comentarios 0