×

¿Problemas para descargar con Mozilla, EDGE? Deshabilita la opción "Abrir vinculos en una pestaña nueva" tal como lo muestra ésta imagen.

La Leyenda del Tesoro Perdido: al Filo de la Historia (2022) Temporada 1 WEB-DL 1080p Latino

94 vistas

Información de La Leyenda del Tesoro Perdido: al Filo de la Historia (2022) Temporada 1 WEB-DL 1080p Latino

Datos de la película

  • Calidad: WEBDL
  • Audio: Se especifica abajo de la Sinopsis
  • Subtitulos: Español Latino SRT- FORZADOS SRT
  • Resolución: 1920x1080p
  • Formato: MKV
  • Codec: H.264
  • Encoder: CinemaniaHD
  • Mediainfo: Clic para Mostrar Datos Ver
  • La Leyenda Del Tesoro Perdido S01E01 (2022) D+ Web-DL 1080p Latino.mkv Format                      : Matroska Format version              : Version 4 File size                   : 2.36 GiB Duration                    : 46 min 29 s Overall bit rate mode       : Variable Overall bit rate            : 7 280 kb/s Movie name                  : CinemaniaHDD.Net Encoded date                : UTC 2022-12-14 17:02:03 Writing application         : mkvmerge v56.1.0 ('My Friend') 64-bit Writing library             : libebml v1.4.2 + libmatroska v1.6.4 Attachments                 : CINEMANIAHD.png Video ID                          : 1 Format                      : AVC Format/Info                 : Advanced Video Codec Format profile              : High@L4 Format settings             : CABAC / 4 Ref Frames Format settings, CABAC      : Yes Format settings, Reference  : 4 frames Codec ID                    : V_MPEG4/ISO/AVC Duration                    : 46 min 29 s Bit rate mode               : Variable Bit rate                    : 6 254 kb/s Maximum bit rate            : 12.7 Mb/s Width                       : 1 920 pixels Height                      : 1 080 pixels Display aspect ratio        : 16:9 Frame rate mode             : Constant Frame rate                  : 23.976 (24000/1001) FPS Color space                 : YUV Chroma subsampling          : 4:2:0 Bit depth                   : 8 bits Scan type                   : Progressive Bits/(Pixel*Frame)          : 0.126 Stream size                 : 2.03 GiB (86%) Title                       : WEB HD1080p [CinemaniaHDD] Default                     : Yes Forced                      : No Color range                 : Limited Color primaries             : BT.709 Transfer characteristics    : BT.709 Matrix coefficients         : BT.709 Audio #1 ID                          : 2 Format                      : E-AC-3 Format/Info                 : Enhanced AC-3 Commercial name             : Dolby Digital Plus Codec ID                    : A_EAC3 Duration                    : 46 min 29 s Bit rate mode               : Constant Bit rate                    : 256 kb/s Channel(s)                  : 6 channels Channel layout              : L R C LFE Ls Rs Sampling rate               : 48.0 kHz Frame rate                  : 31.250 FPS (1536 SPF) Compression mode            : Lossy Stream size                 : 85.1 MiB (4%) Title                       : Español Latino [CinemaniaHDD] Language                    : Spanish Service kind                : Complete Main Default                     : Yes Forced                      : No Audio #2 ID                          : 3 Format                      : E-AC-3 JOC Format/Info                 : Enhanced AC-3 with Joint Object Coding Commercial name             : Dolby Digital Plus with Dolby Atmos Codec ID                    : A_EAC3 Duration                    : 46 min 29 s Bit rate mode               : Constant Bit rate                    : 768 kb/s Channel(s)                  : 6 channels Channel layout              : L R C LFE Ls Rs Sampling rate               : 48.0 kHz Frame rate                  : 31.250 FPS (1536 SPF) Compression mode            : Lossy Stream size                 : 255 MiB (11%) Title                       : Ingles [CinemaniaHDD] Language                    : English Service kind                : Complete Main Default                     : No Forced                      : No Complexity index            : 16 Number of dynamic objects   : 15 Bed channel count           : 1 channel Bed channel configuration   : LFE Text #1 ID                          : 4 Format                      : UTF-8 Codec ID                    : S_TEXT/UTF8 Codec ID/Info               : UTF-8 Plain Text Duration                    : 43 min 23 s Bit rate                    : 0 b/s Count of elements           : 7 Stream size                 : 171 Bytes (0%) Title                       : Forzados-SRT [CinemaniaHDD] Language                    : Spanish Default                     : Yes Forced                      : No Text #2 ID                          : 5 Format                      : UTF-8 Codec ID                    : S_TEXT/UTF8 Codec ID/Info               : UTF-8 Plain Text Duration                    : 46 min 22 s Bit rate                    : 63 b/s Count of elements           : 707 Stream size                 : 21.6 KiB (0%) Title                       : Español-SRT [CinemaniaHDD] Language                    : Spanish Default                     : No Forced                      : No Text #3 ID                          : 6 Format                      : UTF-8 Codec ID                    : S_TEXT/UTF8 Codec ID/Info               : UTF-8 Plain Text Duration                    : 44 min 56 s Bit rate                    : 71 b/s Count of elements           : 797 Stream size                 : 23.6 KiB (0%) Title                       : Ingles-SRT [CinemaniaHDD] Language                    : English Default                     : No Forced                      : No
  • Peso: 2.3 GiB Aprox. C/U

Sinopsis

Descargar La Leyenda del Tesoro Perdido: al Filo de la Historia (2022) Temporada 1 WEB-DL 1080p Latino. Jess (Alexis), una joven miembro de la organización DREAM, busca respuestas sobre su familia y se embarca en la aventura de su vida para desvelar la verdad sobre el pasado y salvar un tesoro panamericano perdido.

Audio Español Latino EAC3 5.1 D+ – Ingles EAC3 JOC 5.1 D+
9 Capitulos Disponibles!!

Ficha técnica

Video trailer de la película

Enlaces de descarga

Rip de Bluray

Descargar La Leyenda del Tesoro Perdido: al Filo de la Historia (2022) Temporada 1 WEB-DL 1080p Latino




Aportes de DPeliculasHDmega la pass es:dpeliculashdmega.org Aportes de CinemaniaHD la pass es:cinemaniahdd.com
Guardado en : Action & Adventure , Series

Películas relacionadas

descargar La Leyenda del Tesoro Perdido: al Filo de la Historia (2022) Temporada 1 WEB-DL 1080p Latino WEBDL 1080p gratis, La Leyenda del Tesoro Perdido: al Filo de la Historia (2022) Temporada 1 WEB-DL 1080p Latino WEBDL mega 1 link, La Leyenda del Tesoro Perdido: al Filo de la Historia (2022) Temporada 1 WEB-DL 1080p Latino WEBDL serie completa, descargar La Leyenda del Tesoro Perdido: al Filo de la Historia (2022) Temporada 1 WEB-DL 1080p Latino WEBDL gratis en mega.

La Leyenda del Tesoro Perdido: al Filo de la Historia (2022) Temporada 1 WEB-DL 1080p Latino pelicula full hd, La Leyenda del Tesoro Perdido: al Filo de la Historia (2022) Temporada 1 WEB-DL 1080p Latino mega latino, La Leyenda del Tesoro Perdido: al Filo de la Historia (2022) Temporada 1 WEB-DL 1080p Latino 4k latino, La Leyenda del Tesoro Perdido: al Filo de la Historia (2022) Temporada 1 WEB-DL 1080p Latino pelicula completa, La Leyenda del Tesoro Perdido: al Filo de la Historia (2022) Temporada 1 WEB-DL 1080p Latino descargar gratis, descargar La Leyenda del Tesoro Perdido: al Filo de la Historia (2022) Temporada 1 WEB-DL 1080p Latino pelicula latino, La Leyenda del Tesoro Perdido: al Filo de la Historia (2022) Temporada 1 WEB-DL 1080p Latino 1 link mega, La Leyenda del Tesoro Perdido: al Filo de la Historia (2022) Temporada 1 WEB-DL 1080p Latino 1 link google drive, La Leyenda del Tesoro Perdido: al Filo de la Historia (2022) Temporada 1 WEB-DL 1080p Latino hd 1080p latino.
Comentarios 0