×

¿Problemas para descargar con Mozilla, EDGE? Deshabilita la opción "Abrir vinculos en una pestaña nueva" tal como lo muestra ésta imagen.

La leyenda del gigante de la montaña (2017) Full HD 1080p Latino [CNMNHDD]

3.989 vistas

Información de La leyenda del gigante de la montaña (2017) Full HD 1080p Latino [CNMNHDD]

Datos de la película

  • Calidad: Full 1080p
  • Audio: Se especifica abajo de la Sinopsis
  • Subtitulos: Español Latino SRT- FORZADOS SRT
  • Resolución: 1920x1080
  • Formato: MKV
  • Codec: H.264
  • Encoder: cinemaniahdd
  • Mediainfo: Clic para Mostrar Datos Ver
  • La leyenda del gigante de la montaña (2017) Full HD 1080p Latino [CNMNHDD].mkv
    Format                      : Matroska
    Format version              : Version 4
    File size                   : 6.23 GiB
    Duration                    : 1 h 44 min
    Overall bit rate            : 8 542 kb/s
    Movie name                  : La leyenda del gigante de la montaña (2017) Full HD - CinemaniaHDD.Net
    Encoded date                : UTC 2020-07-01 14:37:18
    Writing application         : mkvmerge v46.0.0 ('No Deeper Escape') 64-bit
    Writing library             : libebml v1.3.10 + libmatroska v1.5.2

    Video
    ID                          : 1
    Format                      : AVC
    Format/Info                 : Advanced Video Codec
    Format profile              : High@L4.1
    Format settings             : CABAC / 4 Ref Frames
    Format settings, CABAC      : Yes
    Format settings, Reference  : 4 frames
    Codec ID                    : V_MPEG4/ISO/AVC
    Duration                    : 1 h 44 min
    Bit rate                    : 6 390 kb/s
    Width                       : 1 920 pixels
    Height                      : 1 080 pixels
    Display aspect ratio        : 16:9
    Frame rate mode             : Constant
    Frame rate                  : 24.000 FPS
    Color space                 : YUV
    Chroma subsampling          : 4:2:0
    Bit depth                   : 8 bits
    Scan type                   : Progressive
    Bits/(Pixel*Frame)          : 0.128
    Stream size                 : 4.66 GiB (75%)
    Title                       : CinemaniaHDD
    Writing library             : x264 core 157 r2935 545de2f
    Encoding settings           : cabac=1 / ref=4 / deblock=1:0:0 / analyse=0x3:0x133 / me=tesa / subme=11 / psy=1 / psy_rd=1.00:0.00 / mixed_ref=1 / me_range=24 / chroma_me=1 / trellis=2 / 8x8dct=1 / cqm=0 / deadzone=21,11 / fast_pskip=0 / chroma_qp_offset=-2 / threads=24 / lookahead_threads=6 / sliced_threads=0 / nr=0 / decimate=1 / interlaced=0 / bluray_compat=0 / constrained_intra=0 / bframes=16 / b_pyramid=2 / b_adapt=2 / b_bias=0 / direct=3 / weightb=1 / open_gop=0 / weightp=2 / keyint=240 / keyint_min=24 / scenecut=40 / intra_refresh=0 / rc_lookahead=60 / rc=crf / mbtree=1 / crf=20.0 / qcomp=0.60 / qpmin=0 / qpmax=69 / qpstep=4 / vbv_maxrate=62500 / vbv_bufsize=78125 / crf_max=0.0 / nal_hrd=none / filler=0 / ip_ratio=1.40 / aq=1:1.00
    Default                     : Yes
    Forced                      : No
    Color range                 : Limited
    Color primaries             : BT.709
    Transfer characteristics    : BT.709
    Matrix coefficients         : BT.709

    Audio #1
    ID                          : 2
    Format                      : AC-3
    Format/Info                 : Audio Coding 3
    Commercial name             : Dolby Digital
    Codec ID                    : A_AC3
    Duration                    : 1 h 44 min
    Bit rate mode               : Constant
    Bit rate                    : 640 kb/s
    Channel(s)                  : 6 channels
    Channel layout              : L R C LFE Ls Rs
    Sampling rate               : 48.0 kHz
    Frame rate                  : 31.250 FPS (1536 SPF)
    Compression mode            : Lossy
    Delay relative to video     : -5 ms
    Stream size                 : 478 MiB (7%)
    Title                       : Español latino [CinemaniaHDD]
    Language                    : Spanish
    Service kind                : Complete Main
    Default                     : Yes
    Forced                      : No

    Audio #2
    ID                          : 3
    Format                      : DTS
    Format/Info                 : Digital Theater Systems
    Codec ID                    : A_DTS
    Duration                    : 1 h 44 min
    Bit rate mode               : Constant
    Bit rate                    : 1 509 kb/s
    Channel(s)                  : 6 channels
    Channel layout              : C L R Ls Rs LFE
    Sampling rate               : 48.0 kHz
    Frame rate                  : 93.750 FPS (512 SPF)
    Bit depth                   : 24 bits
    Compression mode            : Lossy
    Delay relative to video     : -5 ms
    Stream size                 : 1.10 GiB (18%)
    Title                       : Noruego [CinemaniaHDD]
    Language                    : Norwegian
    Default                     : No
    Forced                      : No

    Text #1
    ID                          : 4
    Format                      : UTF-8
    Codec ID                    : S_TEXT/UTF8
    Codec ID/Info               : UTF-8 Plain Text
    Duration                    : 1 h 35 min
    Bit rate                    : 0 b/s
    Count of elements           : 5
    Stream size                 : 164 Bytes (0%)
    Title                       : Forzados [CinemaniaHDD]
    Language                    : Spanish
    Default                     : Yes
    Forced                      : Yes

    Text #2
    ID                          : 5
    Format                      : UTF-8
    Codec ID                    : S_TEXT/UTF8
    Codec ID/Info               : UTF-8 Plain Text
    Duration                    : 1 h 39 min
    Bit rate                    : 29 b/s
    Count of elements           : 785
    Stream size                 : 21.6 KiB (0%)
    Title                       : Español latino [CinemaniaHDD]
    Language                    : Spanish
    Default                     : No
    Forced                      : No

    Menu
    00:00:00.000                : :00:00:00.000
    00:09:59.542                : :00:09:59.542
    00:19:59.583                : :00:19:59.583
    00:29:59.583                : :00:29:59.583
    00:39:59.583                : :00:39:59.583
    00:49:59.542                : :00:49:59.542
    00:59:59.625                : :00:59:59.625
    01:09:59.875                : :01:09:59.875
    01:19:59.667                : :01:19:59.667
    01:29:59.583                : :01:29:59.583
    01:39:59.583                : :01:39:59.583

     

  • Peso: 6.23 GiB

Sinopsis

Espen «Ash Lad», un pobre hijo de granjero, se embarca en una peligrosa aventura con sus hermanos para salvar a la princesa de un vil troll conocido como el Rey de la Montaña, para cobrar una recompensa y salvar la granja de su familia de la ruina.

Español Latino AC3 5.1 Bluray – Noruego AC3 5.1 Bluray

Ficha técnica

Video trailer de la película

Enlaces de descarga

Rip de Bluray

Descargar La leyenda del gigante de la montaña (2017) Full HD 1080p Latino [CNMNHDD]




Aportes de DPeliculasHDmega la pass es:dpeliculashdmega.org Aportes de CinemaniaHD la pass es:cinemaniahdd.com

Películas relacionadas

  • Zola (2020) PLACEBO Full HD 1080p Latino

    Zola (2020) PLACEBO Full HD 1080p Latino

    2020
    Zola (2020) PLACEBO Full HD 1080p Latino

    1h 26m 2020

    Descargar Zola (2020) PLACEBO Full HD 1080p Latino. Una camarera accede a acompañar a una bailarina...

    Director: Sheri Davani

    Género: Comedia

    Actores: Ts Madison

  • Hocus Pocus: Abracadabra (1993) 1080p Latino

    Hocus Pocus: Abracadabra (1993) 1080p Latino

    1993
    Hocus Pocus: Abracadabra (1993) 1080p Latino

    1h 36m 1993

    Descargar Hocus Pocus: Abracadabra (1993) 1080p Latino. Tres brujas del siglo XII son invocadas durante...

    Director: Kenny Ortega

    Género: Comedia

    Actores: Vinessa Shaw

descargar La leyenda del gigante de la montaña (2017) Full HD 1080p Latino [CNMNHDD] Full 1080p 1080p gratis, La leyenda del gigante de la montaña (2017) Full HD 1080p Latino [CNMNHDD] Full 1080p mega 1 link, La leyenda del gigante de la montaña (2017) Full HD 1080p Latino [CNMNHDD] Full 1080p pelicula completa, descargar La leyenda del gigante de la montaña (2017) Full HD 1080p Latino [CNMNHDD] Full 1080p gratis en mega.

La leyenda del gigante de la montaña (2017) Full HD 1080p Latino [CNMNHDD] pelicula full hd, La leyenda del gigante de la montaña (2017) Full HD 1080p Latino [CNMNHDD] mega latino, La leyenda del gigante de la montaña (2017) Full HD 1080p Latino [CNMNHDD] 4k latino, La leyenda del gigante de la montaña (2017) Full HD 1080p Latino [CNMNHDD] pelicula completa, La leyenda del gigante de la montaña (2017) Full HD 1080p Latino [CNMNHDD] descargar gratis, descargar La leyenda del gigante de la montaña (2017) Full HD 1080p Latino [CNMNHDD] pelicula latino, La leyenda del gigante de la montaña (2017) Full HD 1080p Latino [CNMNHDD] 1 link mega, La leyenda del gigante de la montaña (2017) Full HD 1080p Latino [CNMNHDD] 1 link google drive, La leyenda del gigante de la montaña (2017) Full HD 1080p Latino [CNMNHDD] hd 1080p latino.
Comentarios 2