×

¿Problemas para descargar con Mozilla, EDGE? Deshabilita la opción "Abrir vinculos en una pestaña nueva" tal como lo muestra ésta imagen.

La leyenda del gigante de la montaña (2017) REMUX 1080p Latino [CNMNHDD]

240 vistas

Información de La leyenda del gigante de la montaña (2017) REMUX 1080p Latino [CNMNHDD]

Datos de la película

  • Calidad: Full 1080p
  • Audio: Se especifica abajo de la Sinopsis
  • Subtitulos: Español Latino SRT- FORZADOS SRT
  • Resolución: 1920x1080
  • Formato: MKV
  • Codec: H.264
  • Encoder: cinemaniahdd
  • Mediainfo: Clic para Mostrar Datos Ver
  • La leyenda del gigante de la montaña (2017) REMUX 1080p Latino [CNMNHDD].mkv
    Format                      : Matroska
    Format version              : Version 4
    File size                   : 21.8 GiB
    Duration                    : 1 h 44 min
    Overall bit rate mode       : Variable
    Overall bit rate            : 29.9 Mb/s
    Movie name                  : La leyenda del gigante de la montaña (2017) REMUX - CinemaniaHDD.Net
    Encoded date                : UTC 2020-07-01 14:38:53
    Writing application         : mkvmerge v46.0.0 ('No Deeper Escape') 64-bit
    Writing library             : libebml v1.3.10 + libmatroska v1.5.2

    Video
    ID                          : 1
    Format                      : AVC
    Format/Info                 : Advanced Video Codec
    Format profile              : High@L4.1
    Format settings             : CABAC / 4 Ref Frames
    Format settings, CABAC      : Yes
    Format settings, Reference  : 4 frames
    Codec ID                    : V_MPEG4/ISO/AVC
    Duration                    : 1 h 44 min
    Bit rate mode               : Variable
    Bit rate                    : 24.0 Mb/s
    Maximum bit rate            : 35.0 Mb/s
    Width                       : 1 920 pixels
    Height                      : 1 080 pixels
    Display aspect ratio        : 16:9
    Frame rate mode             : Constant
    Frame rate                  : 24.000 FPS
    Standard                    : NTSC
    Color space                 : YUV
    Chroma subsampling          : 4:2:0
    Bit depth                   : 8 bits
    Scan type                   : Progressive
    Bits/(Pixel*Frame)          : 0.482
    Stream size                 : 17.5 GiB (80%)
    Title                       : CinemaniaHDD
    Language                    : Norwegian
    Default                     : Yes
    Forced                      : No
    Color range                 : Limited
    Color primaries             : BT.709
    Transfer characteristics    : BT.709
    Matrix coefficients         : BT.709

    Audio #1
    ID                          : 2
    Format                      : AC-3
    Format/Info                 : Audio Coding 3
    Commercial name             : Dolby Digital
    Codec ID                    : A_AC3
    Duration                    : 1 h 44 min
    Bit rate mode               : Constant
    Bit rate                    : 640 kb/s
    Channel(s)                  : 6 channels
    Channel layout              : L R C LFE Ls Rs
    Sampling rate               : 48.0 kHz
    Frame rate                  : 31.250 FPS (1536 SPF)
    Compression mode            : Lossy
    Stream size                 : 478 MiB (2%)
    Title                       : Español latino [CinemaniaHDD]
    Language                    : Spanish
    Service kind                : Complete Main
    Default                     : Yes
    Forced                      : No

    Audio #2
    ID                          : 3
    Format                      : DTS XLL
    Format/Info                 : Digital Theater Systems
    Commercial name             : DTS-HD Master Audio
    Codec ID                    : A_DTS
    Duration                    : 1 h 44 min
    Bit rate mode               : Variable
    Bit rate                    : 3 781 kb/s
    Channel(s)                  : 6 channels
    Channel layout              : C L R Ls Rs LFE
    Sampling rate               : 48.0 kHz
    Frame rate                  : 93.750 FPS (512 SPF)
    Bit depth                   : 24 bits
    Compression mode            : Lossless
    Stream size                 : 2.76 GiB (13%)
    Title                       : Noruego [CinemaniaHDD]
    Language                    : Norwegian
    Default                     : No
    Forced                      : No

    Audio #3
    ID                          : 4
    Format                      : DTS
    Format/Info                 : Digital Theater Systems
    Codec ID                    : A_DTS
    Duration                    : 1 h 44 min
    Bit rate mode               : Constant
    Bit rate                    : 1 509 kb/s
    Channel(s)                  : 6 channels
    Channel layout              : C L R Ls Rs LFE
    Sampling rate               : 48.0 kHz
    Frame rate                  : 93.750 FPS (512 SPF)
    Bit depth                   : 24 bits
    Compression mode            : Lossy
    Stream size                 : 1.10 GiB (5%)
    Title                       : Noruego - Core [CinemaniaHDD]
    Language                    : Norwegian
    Default                     : No
    Forced                      : No

    Text #1
    ID                          : 5
    Format                      : UTF-8
    Codec ID                    : S_TEXT/UTF8
    Codec ID/Info               : UTF-8 Plain Text
    Duration                    : 1 h 35 min
    Bit rate                    : 0 b/s
    Count of elements           : 5
    Stream size                 : 164 Bytes (0%)
    Title                       : Forzados [CinemaniaHDD]
    Language                    : Spanish
    Default                     : Yes
    Forced                      : Yes

    Text #2
    ID                          : 6
    Format                      : UTF-8
    Codec ID                    : S_TEXT/UTF8
    Codec ID/Info               : UTF-8 Plain Text
    Duration                    : 1 h 39 min
    Bit rate                    : 29 b/s
    Count of elements           : 785
    Stream size                 : 21.6 KiB (0%)
    Title                       : Español latino [CinemaniaHDD]
    Language                    : Spanish
    Default                     : No
    Forced                      : No

    Menu
    00:00:00.000                : en:00:00:00.000
    00:09:59.542                : en:00:09:59.542
    00:19:59.583                : en:00:19:59.583
    00:29:59.583                : en:00:29:59.583
    00:39:59.583                : en:00:39:59.583
    00:49:59.542                : en:00:49:59.542
    00:59:59.625                : en:00:59:59.625
    01:09:59.875                : en:01:09:59.875
    01:19:59.667                : en:01:19:59.667
    01:29:59.583                : en:01:29:59.583
    01:39:59.583                : en:01:39:59.583

     

  • Peso: 21.8 GiB

Sinopsis

Espen «Ash Lad», un pobre hijo de granjero, se embarca en una peligrosa aventura con sus hermanos para salvar a la princesa de un vil troll conocido como el Rey de la Montaña, para cobrar una recompensa y salvar la granja de su familia de la ruina.

Español Latino AC3 5.1 Bluray – Noruego AC3 5.1 Bluray

Ficha técnica

Video trailer de la película

Enlaces de descarga

Rip de Bluray

Descargar La leyenda del gigante de la montaña (2017) REMUX 1080p Latino [CNMNHDD]




Aportes de DPeliculasHDmega la pass es:dpeliculashdmega.org Aportes de CinemaniaHD la pass es:cinemaniahdd.com
Guardado en : Aventura , Fantasía , Remux

Películas relacionadas

descargar La leyenda del gigante de la montaña (2017) REMUX 1080p Latino [CNMNHDD] Full 1080p 1080p gratis, La leyenda del gigante de la montaña (2017) REMUX 1080p Latino [CNMNHDD] Full 1080p mega 1 link, La leyenda del gigante de la montaña (2017) REMUX 1080p Latino [CNMNHDD] Full 1080p pelicula completa, descargar La leyenda del gigante de la montaña (2017) REMUX 1080p Latino [CNMNHDD] Full 1080p gratis en mega.

La leyenda del gigante de la montaña (2017) REMUX 1080p Latino [CNMNHDD] pelicula full hd, La leyenda del gigante de la montaña (2017) REMUX 1080p Latino [CNMNHDD] mega latino, La leyenda del gigante de la montaña (2017) REMUX 1080p Latino [CNMNHDD] 4k latino, La leyenda del gigante de la montaña (2017) REMUX 1080p Latino [CNMNHDD] pelicula completa, La leyenda del gigante de la montaña (2017) REMUX 1080p Latino [CNMNHDD] descargar gratis, descargar La leyenda del gigante de la montaña (2017) REMUX 1080p Latino [CNMNHDD] pelicula latino, La leyenda del gigante de la montaña (2017) REMUX 1080p Latino [CNMNHDD] 1 link mega, La leyenda del gigante de la montaña (2017) REMUX 1080p Latino [CNMNHDD] 1 link google drive, La leyenda del gigante de la montaña (2017) REMUX 1080p Latino [CNMNHDD] hd 1080p latino.
Comentarios 0