×

¿Problemas para descargar con Mozilla, EDGE? Deshabilita la opción "Abrir vinculos en una pestaña nueva" tal como lo muestra ésta imagen.

La Leyenda de Lantern’s Lane (2021) WEB-DL 1080p Latino

30 vistas

Información de La Leyenda de Lantern’s Lane (2021) WEB-DL 1080p Latino

Datos de la película

  • Calidad: WEBDL
  • Audio: Español Latino AC3 5.1 WEB-DL - Ingles AC3 5.1 WEB-DL
  • Subtitulos: Español Latino SRT- FORZADOS SRT
  • Resolución: 1912x1028p
  • Formato: MKV
  • Codec: H.264
  • Encoder: Melkor
  • Mediainfo: Clic para Mostrar Datos Ver
  • La Leyenda de Lanterns Lane (2021) WebDL 1080p Latino.mkv
    Format                      : Matroska
    Format version              : Version 4
    File size                   : 5.08 GiB
    Duration                    : 1 h 35 min
    Overall bit rate            : 7 619 kb/s
    Movie name                  : Lanterns Lane (2021) CinemaniaHDD.Net
    Encoded date                : UTC 2022-11-04 04:31:48
    Writing application         : mkvmerge v56.1.0 ('My Friend') 64-bit
    Writing library             : libebml v1.4.2 + libmatroska v1.6.4
    Attachments                 : CINEMANIAHD.png

    Video
    ID                          : 1
    Format                      : AVC
    Format/Info                 : Advanced Video Codec
    Format profile              : High@L4
    Format settings             : CABAC / 4 Ref Frames
    Format settings, CABAC      : Yes
    Format settings, Reference  : 4 frames
    Codec ID                    : V_MPEG4/ISO/AVC
    Duration                    : 1 h 35 min
    Bit rate                    : 6 785 kb/s
    Width                       : 1 912 pixels
    Height                      : 1 028 pixels
    Display aspect ratio        : 1.85:1
    Frame rate mode             : Constant
    Frame rate                  : 23.976 (24000/1001) FPS
    Color space                 : YUV
    Chroma subsampling          : 4:2:0
    Bit depth                   : 8 bits
    Scan type                   : Progressive
    Bits/(Pixel*Frame)          : 0.144
    Stream size                 : 4.52 GiB (89%)
    Title                       : Web HD1080p [CinemaniaHDD]
    Default                     : Yes
    Forced                      : Yes
    Color range                 : Limited
    Color primaries             : BT.709
    Transfer characteristics    : BT.709
    Matrix coefficients         : BT.709

    Audio #1
    ID                          : 2
    Format                      : AC-3
    Format/Info                 : Audio Coding 3
    Commercial name             : Dolby Digital
    Codec ID                    : A_AC3
    Duration                    : 1 h 35 min
    Bit rate mode               : Constant
    Bit rate                    : 448 kb/s
    Channel(s)                  : 6 channels
    Channel layout              : L R C LFE Ls Rs
    Sampling rate               : 48.0 kHz
    Frame rate                  : 31.250 FPS (1536 SPF)
    Compression mode            : Lossy
    Stream size                 : 306 MiB (6%)
    Title                       : Español Latino [CinemaniaHDD]
    Language                    : Spanish
    Service kind                : Complete Main
    Default                     : Yes
    Forced                      : Yes

    Audio #2
    ID                          : 3
    Format                      : AC-3
    Format/Info                 : Audio Coding 3
    Commercial name             : Dolby Digital
    Codec ID                    : A_AC3
    Duration                    : 1 h 35 min
    Bit rate mode               : Constant
    Bit rate                    : 384 kb/s
    Channel(s)                  : 6 channels
    Channel layout              : L R C LFE Ls Rs
    Sampling rate               : 48.0 kHz
    Frame rate                  : 31.250 FPS (1536 SPF)
    Compression mode            : Lossy
    Stream size                 : 262 MiB (5%)
    Title                       : Ingles [CinemaniaHDD]
    Language                    : English
    Service kind                : Complete Main
    Default                     : No
    Forced                      : No

    Text #1
    ID                          : 4
    Format                      : UTF-8
    Codec ID                    : S_TEXT/UTF8
    Codec ID/Info               : UTF-8 Plain Text
    Duration                    : 1 h 30 min
    Bit rate                    : 0 b/s
    Count of elements           : 4
    Stream size                 : 132 Bytes (0%)
    Title                       : Forzados-SRT [CinemaniaHDD]
    Language                    : Spanish
    Default                     : Yes
    Forced                      : Yes

    Text #2
    ID                          : 5
    Format                      : UTF-8
    Codec ID                    : S_TEXT/UTF8
    Codec ID/Info               : UTF-8 Plain Text
    Duration                    : 1 h 30 min
    Bit rate                    : 53 b/s
    Count of elements           : 1129
    Stream size                 : 35.3 KiB (0%)
    Title                       : Español-SRT [CinemaniaHDD]
    Language                    : Spanish
    Default                     : No
    Forced                      : No

    Text #3
    ID                          : 6
    Format                      : UTF-8
    Codec ID                    : S_TEXT/UTF8
    Codec ID/Info               : UTF-8 Plain Text
    Duration                    : 1 h 28 min
    Bit rate                    : 54 b/s
    Count of elements           : 1352
    Stream size                 : 35.1 KiB (0%)
    Title                       : Ingles-SRT [CinemaniaHDD]
    Language                    : English
    Default                     : No
    Forced                      : No

  • Peso: 5.08 GiB

Sinopsis

Descargar La Leyenda de Lantern’s Lane (2021) WEB-DL 1080p Latino. Una recién graduada de la universidad y sus amigos de la escuela secundaria separados regresan a Lantern’s Lane, la ubicación de una leyenda urbana malvada y deben luchar para sobrevivir a la noche.

Ficha técnica

  • Titulo original: Lantern's Lane
  • Fecha de lanzamiento: 05-11-2021
  • Director: Justin LaReau
  • Género: Terror

Video trailer de la película

Enlaces de descarga

Rip de Bluray

Descargar La Leyenda de Lantern’s Lane (2021) WEB-DL 1080p Latino




Aportes de DPeliculasHDmega la pass es:dpeliculashdmega.org Aportes de CinemaniaHD la pass es:cinemaniahdd.com
Guardado en : Terror

Películas relacionadas

  • Resurrección (2022) AMZN WEB-DL 1080p Latino

    Resurrección (2022) AMZN WEB-DL 1080p Latino

    2022
    Resurrección (2022) AMZN WEB-DL 1080p Latino

    1h 43m 2022

    Descargar Resurrección (2022) AMZN Web-DL 1080p Latino. La vida cuidadosamente construida de una mujer...

    Director: Michael Kefeyalew

    Género: Drama

    Actores: Zarra Kaahn

  • Nope (2022) [IMAX] REMUX 4K HDR Latino – CMHDD

    Nope (2022) [IMAX] REMUX 4K HDR Latino – CMHDD

    2022
    Nope (2022) [IMAX] REMUX 4K HDR Latino – CMHDD

    2h 15m 2022

    Los habitantes de un remoto pueblo del interior de California, entre los que se encuentran los propietarios...

    Director: Wayne Witherspoon

    Género: Ciencia ficción

    Actores: Wrenn Schmidt

  • The Visitor (2022) AMZN WEB-DL 1080p Latino

    The Visitor (2022) AMZN WEB-DL 1080p Latino

    2022
    The Visitor (2022) AMZN WEB-DL 1080p Latino

    1h 26m 2022

    Descargar The Visitor (2022) AMZN WEB-DL 1080p Latino. Después de una serie de tragedias, incluida la...

    Director: Justin P. Lange

    Género: Misterio

    Actores: Victoria Paige Watkins

  • Sonríe (2022) WEB-DL 4K UHD HDR Latino

    Sonríe (2022) WEB-DL 4K UHD HDR Latino

    2022
    Sonríe (2022) WEB-DL 4K UHD HDR Latino

    1h 55m 2022

    Descargar Sonríe (2022) WEB-DL 4K UHD HDR Latino. Tras presenciar un extraño y traumático incidente...

    Director: Parker Finn

    Género: 4K HDR

    Actores: Vanessa Cozart

  • Sonríe (2022) AMZN WEB-DL 1080p Latino

    Sonríe (2022) AMZN WEB-DL 1080p Latino

    2022
    Sonríe (2022) AMZN WEB-DL 1080p Latino

    1h 55m 2022

    Descargar Sonríe (2022) AMZN WEB-DL 1080p Latino. Tras presenciar un extraño y traumático incidente...

    Director: Parker Finn

    Género: Misterio

    Actores: Vanessa Cozart

descargar La Leyenda de Lantern’s Lane (2021) WEB-DL 1080p Latino WEBDL 1080p gratis, La Leyenda de Lantern’s Lane (2021) WEB-DL 1080p Latino WEBDL mega 1 link, La Leyenda de Lantern’s Lane (2021) WEB-DL 1080p Latino WEBDL pelicula completa, descargar La Leyenda de Lantern’s Lane (2021) WEB-DL 1080p Latino WEBDL gratis en mega.

La Leyenda de Lantern’s Lane (2021) WEB-DL 1080p Latino pelicula full hd, La Leyenda de Lantern’s Lane (2021) WEB-DL 1080p Latino mega latino, La Leyenda de Lantern’s Lane (2021) WEB-DL 1080p Latino 4k latino, La Leyenda de Lantern’s Lane (2021) WEB-DL 1080p Latino pelicula completa, La Leyenda de Lantern’s Lane (2021) WEB-DL 1080p Latino descargar gratis, descargar La Leyenda de Lantern’s Lane (2021) WEB-DL 1080p Latino pelicula latino, La Leyenda de Lantern’s Lane (2021) WEB-DL 1080p Latino 1 link mega, La Leyenda de Lantern’s Lane (2021) WEB-DL 1080p Latino 1 link google drive, La Leyenda de Lantern’s Lane (2021) WEB-DL 1080p Latino hd 1080p latino.
Comentarios 0