La Leyenda de la Viuda (2020) PLACEBO Full HD 1080p Latino

62 vistas
1 estrella2 estrellas3 estrellas4 estrellas5 estrellas (Ninguna valoración todavía)
Cargando...

Información de La Leyenda de la Viuda (2020) PLACEBO Full HD 1080p Latino

Datos de la película

  • Calidad: Full 1080p
  • Audio: Se especifica abajo de la Sinopsis
  • Subtitulos: Español Latino SRT- FORZADOS SRT
  • Resolución: 1920x1080p
  • Formato: MKV
  • Codec: H.264
  • Encoder: Melkor
  • Mediainfo: Clic para Mostrar Datos Ver
  • La Leyenda De La Viuda (2020) PLACEBO Full HD 1080p Latino.mkv
    Format                      : Matroska
    Format version              : Version 4
    File size                   : 3.90 GiB
    Duration                    : 1 h 26 min
    Overall bit rate            : 6 477 kb/s
    Movie name                  : The Widow (2020) [Vdova] CinemaniaHDD.Net
    Encoded date                : UTC 2021-07-14 17:19:23
    Writing application         : mkvmerge v56.1.0 ('My Friend') 64-bit
    Writing library             : libebml v1.4.2 + libmatroska v1.6.4
    Attachments                 : CINEMANIAHD.png

    Video
    ID                          : 1
    Format                      : AVC
    Format/Info                 : Advanced Video Codec
    Format profile              : High@L4.1
    Format settings             : CABAC / 4 Ref Frames
    Format settings, CABAC      : Yes
    Format settings, Reference  : 4 frames
    Codec ID                    : V_MPEG4/ISO/AVC
    Duration                    : 1 h 26 min
    Bit rate                    : 4 518 kb/s
    Width                       : 1 920 pixels
    Height                      : 1 080 pixels
    Display aspect ratio        : 16:9
    Frame rate mode             : Constant
    Frame rate                  : 23.976 (24000/1001) FPS
    Color space                 : YUV
    Chroma subsampling          : 4:2:0
    Bit depth                   : 8 bits
    Scan type                   : Progressive
    Bits/(Pixel*Frame)          : 0.091
    Stream size                 : 2.72 GiB (70%)
    Title                       : Full HD1080p [CinemaniaHDD]
    Writing library             : x264 core 157 r2935 545de2f
    Encoding settings           : cabac=1 / ref=4 / deblock=1:0:0 / analyse=0x3:0x133 / me=tesa / subme=11 / psy=1 / psy_rd=1.00:0.00 / mixed_ref=1 / me_range=24 / chroma_me=1 / trellis=2 / 8x8dct=1 / cqm=0 / deadzone=21,11 / fast_pskip=0 / chroma_qp_offset=-2 / threads=24 / lookahead_threads=6 / sliced_threads=0 / nr=0 / decimate=1 / interlaced=0 / bluray_compat=0 / constrained_intra=0 / bframes=16 / b_pyramid=2 / b_adapt=2 / b_bias=0 / direct=3 / weightb=1 / open_gop=0 / weightp=2 / keyint=240 / keyint_min=24 / scenecut=40 / intra_refresh=0 / rc_lookahead=60 / rc=crf / mbtree=1 / crf=19.0 / qcomp=0.60 / qpmin=0 / qpmax=69 / qpstep=4 / vbv_maxrate=62500 / vbv_bufsize=78125 / crf_max=0.0 / nal_hrd=none / filler=0 / ip_ratio=1.40 / aq=1:1.00
    Default                     : Yes
    Forced                      : Yes
    Color range                 : Limited
    Color primaries             : BT.709
    Transfer characteristics    : BT.709
    Matrix coefficients         : BT.709

    Audio #1
    ID                          : 2
    Format                      : AC-3
    Format/Info                 : Audio Coding 3
    Commercial name             : Dolby Digital
    Codec ID                    : A_AC3
    Duration                    : 1 h 26 min
    Bit rate mode               : Constant
    Bit rate                    : 448 kb/s
    Channel(s)                  : 6 channels
    Channel layout              : L R C LFE Ls Rs
    Sampling rate               : 48.0 kHz
    Frame rate                  : 31.250 FPS (1536 SPF)
    Compression mode            : Lossy
    Stream size                 : 276 MiB (7%)
    Title                       : Español Latino [CinemaniaHDD]
    Language                    : Spanish
    Service kind                : Complete Main
    Default                     : Yes
    Forced                      : Yes

    Audio #2
    ID                          : 3
    Format                      : DTS
    Format/Info                 : Digital Theater Systems
    Codec ID                    : A_DTS
    Duration                    : 1 h 26 min
    Bit rate mode               : Constant
    Bit rate                    : 1 509 kb/s
    Channel(s)                  : 6 channels
    Channel layout              : C L R Ls Rs LFE
    Sampling rate               : 48.0 kHz
    Frame rate                  : 93.750 FPS (512 SPF)
    Bit depth                   : 24 bits
    Compression mode            : Lossy
    Stream size                 : 931 MiB (23%)
    Title                       : Ruso [CinemaniaHDD]
    Language                    : Russian
    Default                     : No
    Forced                      : No

    Text #1
    ID                          : 4
    Format                      : UTF-8
    Codec ID                    : S_TEXT/UTF8
    Codec ID/Info               : UTF-8 Plain Text
    Duration                    : 1 h 23 min
    Bit rate                    : 0 b/s
    Count of elements           : 10
    Stream size                 : 538 Bytes (0%)
    Title                       : Forzados-SRT [CinemaniaHDD]
    Language                    : Spanish
    Default                     : Yes
    Forced                      : Yes

    Text #2
    ID                          : 5
    Format                      : UTF-8
    Codec ID                    : S_TEXT/UTF8
    Codec ID/Info               : UTF-8 Plain Text
    Duration                    : 1 h 23 min
    Bit rate                    : 59 b/s
    Count of elements           : 1242
    Stream size                 : 36.6 KiB (0%)
    Title                       : Español-SRT [CinemaniaHDD]
    Language                    : Spanish
    Default                     : No
    Forced                      : No

    Menu
    00:00:00.000                : Chapter 01
    00:07:21.191                : Chapter 02
    00:13:21.300                : Chapter 03
    00:22:36.021                : Chapter 04
    00:27:40.325                : Chapter 05
    00:36:01.034                : Chapter 06
    00:42:28.379                : Chapter 07
    00:49:29.508                : Chapter 08
    00:58:12.489                : Chapter 09
    01:07:04.103                : Chapter 10
    01:16:57.196                : Chapter 11
    01:23:07.441                : Chapter 12

  • Peso: 3.90 GiB

Sinopsis

Descargar La Leyenda de la Viuda (2020) PLACEBO Full HD 1080p Latino. Basado en hechos reales. En una zona densamente boscosa al norte de San Petersburgo, la gente ha desaparecido durante tres décadas. Los pocos cadáveres encontrados estaban desnudos. El 14 de octubre de 2017, un equipo de voluntarios salió al bosque en busca de un adolescente desaparecido. Pronto, se perdió toda comunicación con ellos. Los lugareños creen que fueron capturados por el mismo espíritu oscuro que se llevó a los demás. Lo llaman la viuda cojera.

Español Latino AC3 5.1 – Ruso DTS 5.1

Ficha técnica

Video trailer de la película

Enlaces de descarga

Rip de Bluray

Descargar La Leyenda de la Viuda (2020) PLACEBO Full HD 1080p Latino




Aportes de DPeliculasHDmega la pass es:dpeliculashdmega.org Aportes de CinemaniaHD la pass es:cinemaniahdd.com

Películas relacionadas

La Leyenda de la Viuda (2020) PLACEBO Full HD 1080p Latino pelicula full hd, La Leyenda de la Viuda (2020) PLACEBO Full HD 1080p Latino mega latino, La Leyenda de la Viuda (2020) PLACEBO Full HD 1080p Latino 4k latino, La Leyenda de la Viuda (2020) PLACEBO Full HD 1080p Latino pelicula completa, La Leyenda de la Viuda (2020) PLACEBO Full HD 1080p Latino descargar gratis, descargar La Leyenda de la Viuda (2020) PLACEBO Full HD 1080p Latino pelicula latino, La Leyenda de la Viuda (2020) PLACEBO Full HD 1080p Latino 1 link mega, La Leyenda de la Viuda (2020) PLACEBO Full HD 1080p Latino 1 link google drive, La Leyenda de la Viuda (2020) PLACEBO Full HD 1080p Latino hd 1080p latino.
Comentarios 0