×

¿Problemas para descargar con Mozilla, EDGE? Deshabilita la opción "Abrir vinculos en una pestaña nueva" tal como lo muestra ésta imagen.

La leyenda de Hei (2019) REMUX 1080p Latino

342 vistas

Información de La leyenda de Hei (2019) REMUX 1080p Latino

Datos de la película

  • Calidad: Full 1080p
  • Audio: Se especifica abajo de la Sinopsis
  • Subtitulos: Español Latino SRT- FORZADOS SRT
  • Resolución: 1920x1080p
  • Formato: MKV
  • Codec: H.264
  • Encoder: Melkor
  • Mediainfo: Clic para Mostrar Datos Ver
  • La Leyenda De Hei (2019) REMUX 1080p Latino.mkv
    Format                      : Matroska
    Format version              : Version 4
    File size                   : 26.8 GiB
    Duration                    : 1 h 41 min
    Overall bit rate mode       : Variable
    Overall bit rate            : 37.8 Mb/s
    Movie name                  : The Legend of Hei (2019) [Luo Xiao Hei zhan ji ]
    Encoded date                : UTC 2022-04-13 03:55:55
    Writing application         : mkvmerge v56.1.0 ('My Friend') 64-bit
    Writing library             : libebml v1.4.2 + libmatroska v1.6.4
    Attachments                 : CINEMANIAHD.png

    Video
    ID                          : 1
    Format                      : AVC
    Format/Info                 : Advanced Video Codec
    Format profile              : High@L4.1
    Format settings             : CABAC / 4 Ref Frames
    Format settings, CABAC      : Yes
    Format settings, Reference  : 4 frames
    Codec ID                    : V_MPEG4/ISO/AVC
    Duration                    : 1 h 41 min
    Bit rate mode               : Variable
    Bit rate                    : 29.8 Mb/s
    Maximum bit rate            : 35.0 Mb/s
    Width                       : 1 920 pixels
    Height                      : 1 080 pixels
    Display aspect ratio        : 16:9
    Frame rate mode             : Constant
    Frame rate                  : 24.000 FPS
    Color space                 : YUV
    Chroma subsampling          : 4:2:0
    Bit depth                   : 8 bits
    Scan type                   : Progressive
    Bits/(Pixel*Frame)          : 0.599
    Stream size                 : 21.2 GiB (79%)
    Title                       : REMUX HD1080p [CinemaniaHDD]
    Default                     : Yes
    Forced                      : Yes

    Audio #1
    ID                          : 2
    Format                      : AC-3
    Format/Info                 : Audio Coding 3
    Commercial name             : Dolby Digital
    Codec ID                    : A_AC3
    Duration                    : 1 h 41 min
    Bit rate mode               : Constant
    Bit rate                    : 256 kb/s
    Channel(s)                  : 2 channels
    Channel layout              : L R
    Sampling rate               : 48.0 kHz
    Frame rate                  : 31.250 FPS (1536 SPF)
    Compression mode            : Lossy
    Stream size                 : 186 MiB (1%)
    Title                       : Español Latino [CinemaniaHDD]
    Language                    : Spanish
    Service kind                : Complete Main
    Default                     : Yes
    Forced                      : Yes

    Audio #2
    ID                          : 3
    Format                      : DTS XLL
    Format/Info                 : Digital Theater Systems
    Commercial name             : DTS-HD Master Audio
    Codec ID                    : A_DTS
    Duration                    : 1 h 41 min
    Bit rate mode               : Variable
    Bit rate                    : 3 714 kb/s
    Channel(s)                  : 6 channels
    Channel layout              : C L R Ls Rs LFE
    Sampling rate               : 48.0 kHz
    Frame rate                  : 93.750 FPS (512 SPF)
    Bit depth                   : 24 bits
    Compression mode            : Lossless
    Stream size                 : 2.64 GiB (10%)
    Title                       : Chino [CinemaniaHDD]
    Language                    : Chinese
    Default                     : No
    Forced                      : No

    Audio #3
    ID                          : 4
    Format                      : DTS XLL
    Format/Info                 : Digital Theater Systems
    Commercial name             : DTS-HD Master Audio
    Codec ID                    : A_DTS
    Duration                    : 1 h 41 min
    Bit rate mode               : Variable
    Bit rate                    : 3 969 kb/s
    Channel(s)                  : 6 channels
    Channel layout              : C L R Ls Rs LFE
    Sampling rate               : 48.0 kHz
    Frame rate                  : 93.750 FPS (512 SPF)
    Bit depth                   : 24 bits
    Compression mode            : Lossless
    Stream size                 : 2.82 GiB (11%)
    Title                       : Ingles [CinemaniaHDD]
    Language                    : English
    Default                     : No
    Forced                      : No

    Text #1
    ID                          : 5
    Format                      : UTF-8
    Codec ID                    : S_TEXT/UTF8
    Codec ID/Info               : UTF-8 Plain Text
    Duration                    : 2 s 636 ms
    Bit rate                    : 51 b/s
    Count of elements           : 1
    Stream size                 : 17.0 Bytes (0%)
    Title                       : Forzados-SRT [CinemaniaHDD]
    Language                    : Spanish
    Default                     : Yes
    Forced                      : Yes

    Text #2
    ID                          : 6
    Format                      : UTF-8
    Codec ID                    : S_TEXT/UTF8
    Codec ID/Info               : UTF-8 Plain Text
    Duration                    : 1 h 33 min
    Bit rate                    : 36 b/s
    Count of elements           : 1071
    Stream size                 : 25.2 KiB (0%)
    Title                       : Español-SRT [CinemaniaHDD]
    Language                    : Spanish
    Default                     : No
    Forced                      : No

    Text #3
    ID                          : 7
    Format                      : PGS
    Muxing mode                 : zlib
    Codec ID                    : S_HDMV/PGS
    Codec ID/Info               : Picture based subtitle format used on BDs/HD-DVDs
    Duration                    : 1 h 36 min
    Bit rate                    : 21.9 kb/s
    Count of elements           : 2470
    Stream size                 : 15.2 MiB (0%)
    Title                       : Ingles [CinemaniaHDD]
    Language                    : English
    Default                     : No
    Forced                      : No

    Menu
    00:00:00.000                : Chapter 01
    00:08:05.167                : Chapter 02
    00:17:40.875                : Chapter 03
    00:24:55.708                : Chapter 04
    00:33:40.083                : Chapter 05
    00:40:02.625                : Chapter 06
    00:45:36.542                : Chapter 07
    00:55:16.167                : Chapter 08
    01:03:11.375                : Chapter 09
    01:11:45.833                : Chapter 10
    01:19:40.792                : Chapter 11
    01:29:17.333                : Chapter 12

  • Peso: 26.8 GiB

Sinopsis

Descargar La leyenda de Hei (2019) REMUX 1080p Latino. Durante generaciones, los humanos han creído que los demonios eran leyendas, sin saber que realmente coexisten con nosotros. Hei es un gato demonio que ha vivido siempre feliz en los bosques de las montañas, hasta que la expansión de la ciudad acaba destruyendo su propio hogar. En ese momento, Hei comienza a vagar por el mundo buscando un nuevo lugar en el que cobijarse. Una película precuela de la serie web Luo Xiao Hei Zhan Ji. Los espectadores descubrirán cómo Xiao Hei obtuvo el apellido Luo. También se espera que el episodio 28 de la serie sea lanzado justo antes de que la película se transmita en los cines después de un paréntesis de 2 años.

Español Latino AC3 2.0 WebDL – Chino DTS-HD 5.1 BD – Ingles DTS-HD 5.1 BD

Ficha técnica

Video trailer de la película

Enlaces de descarga

Rip de Bluray

Descargar La leyenda de Hei (2019) REMUX 1080p Latino




Aportes de DPeliculasHDmega la pass es:dpeliculashdmega.org Aportes de CinemaniaHD la pass es:cinemaniahdd.com
Guardado en : Acción , Animación , Fantasía , Remux

Películas relacionadas

descargar La leyenda de Hei (2019) REMUX 1080p Latino Full 1080p 1080p gratis, La leyenda de Hei (2019) REMUX 1080p Latino Full 1080p mega 1 link, La leyenda de Hei (2019) REMUX 1080p Latino Full 1080p pelicula completa, descargar La leyenda de Hei (2019) REMUX 1080p Latino Full 1080p gratis en mega.

La leyenda de Hei (2019) REMUX 1080p Latino pelicula full hd, La leyenda de Hei (2019) REMUX 1080p Latino mega latino, La leyenda de Hei (2019) REMUX 1080p Latino 4k latino, La leyenda de Hei (2019) REMUX 1080p Latino pelicula completa, La leyenda de Hei (2019) REMUX 1080p Latino descargar gratis, descargar La leyenda de Hei (2019) REMUX 1080p Latino pelicula latino, La leyenda de Hei (2019) REMUX 1080p Latino 1 link mega, La leyenda de Hei (2019) REMUX 1080p Latino 1 link google drive, La leyenda de Hei (2019) REMUX 1080p Latino hd 1080p latino.
Comentarios 0