La jungla (2017) Full 1080p Latino

2.099 vistas
1 estrella2 estrellas3 estrellas4 estrellas5 estrellas (6 votos, promedio: 4,00 de 5)
Cargando…

Información de La jungla (2017) Full 1080p Latino

Datos de la película

  • Calidad: Full 1080p
  • Audio: Español Latino AC3 5.1 iTUNES - Ingles DTS 5.1 BLURAY
  • Subtitulos: Español Latino SRT- FORZADOS SRT
  • Resolución: 1920x1080p
  • Formato: MKV
  • Codec: H.264
  • Encoder: Chesse92
  • Mediainfo: Clic para Mostrar Datos Ver
  • La Jungla (2017) Full 1080p Latino.mkv
    Format                      : Matroska
    Format version              : Version 4 / Version 2
    File size                   : 5.57 GiB
    Duration                    : 1 h 55 min
    Overall bit rate            : 6 909 kb/s
    Movie name                  : CinemaniaHDD.Net
    Encoded date                : UTC 2018-10-17 04:09:12 / UTC 2018-08-28T13:47:51Z
    Writing application         : mkvmerge v25.0.0 ('Prog Noir') 64-bit
    Writing library             : libebml v1.3.6 + libmatroska v1.4.9 / Lavf57.7.2

    Video
    ID                          : 1
    Format                      : AVC
    Format/Info                 : Advanced Video Codec
    Format profile              : [email protected]
    Format settings             : CABAC / 4 Ref Frames
    Format settings, CABAC      : Yes
    Format settings, RefFrames  : 4 frames
    Codec ID                    : V_MPEG4/ISO/AVC
    Duration                    : 1 h 55 min
    Bit rate                    : 4 879 kb/s
    Width                       : 1 920 pixels
    Height                      : 1 080 pixels
    Display aspect ratio        : 16:9
    Frame rate mode             : Constant
    Frame rate                  : 23.976 (24000/1001) FPS
    Color space                 : YUV
    Chroma subsampling          : 4:2:0
    Bit depth                   : 8 bits
    Scan type                   : Progressive
    Bits/(Pixel*Frame)          : 0.098
    Stream size                 : 3.93 GiB (71%)
    Title                       : Full HD1080p [Bluray]
    Writing library             : x264 core 155 r2893 b00bcaf
    Encoding settings           : cabac=1 / ref=4 / deblock=1:0:0 / analyse=0x3:0x133 / me=esa / subme=10 / psy=1 / psy_rd=1.00:0.00 / mixed_ref=1 / me_range=24 / chroma_me=1 / trellis=2 / 8x8dct=1 / cqm=0 / deadzone=21,11 / fast_pskip=1 / chroma_qp_offset=-2 / threads=34 / lookahead_threads=5 / sliced_threads=0 / nr=0 / decimate=1 / interlaced=0 / bluray_compat=0 / constrained_intra=0 / bframes=8 / b_pyramid=2 / b_adapt=2 / b_bias=0 / direct=3 / weightb=1 / open_gop=0 / weightp=2 / keyint=240 / keyint_min=24 / scenecut=40 / intra_refresh=0 / rc_lookahead=60 / rc=crf / mbtree=1 / crf=20.0 / qcomp=0.60 / qpmin=0 / qpmax=69 / qpstep=4 / vbv_maxrate=62500 / vbv_bufsize=78125 / crf_max=0.0 / nal_hrd=none / filler=0 / ip_ratio=1.40 / aq=1:1.00
    Default                     : Yes
    Forced                      : No
    Color range                 : Limited
    Color primaries             : BT.709
    Transfer characteristics    : BT.709
    Matrix coefficients         : BT.709
    Statistics Tags Issue       : mkvmerge v25.0.0 ('Prog Noir') 64-bit 2018-10-17 04:09:12 / mkvmerge v25.0.0 ('Prog Noir') 64-bit 2018-10-17 04:09:12 / UTC 2018-08-28T13:47:51Z
    FromStats_BitRate           : 5013566
    FromStats_Duration          : 01:55:21.999000000
    FromStats_FrameCount        : 165962
    FromStats_StreamSize        : 4337987552

    Audio #1
    ID                          : 2
    Format                      : AC-3
    Format/Info                 : Audio Coding 3
    Format settings, Endianness : Big
    Codec ID                    : A_AC3
    Duration                    : 1 h 55 min
    Bit rate mode               : Constant
    Bit rate                    : 384 kb/s
    Channel(s)                  : 6 channels
    Channel positions           : Front: L C R, Side: L R, LFE
    Sampling rate               : 48.0 kHz
    Frame rate                  : 31.250 FPS (1536 SPF)
    Bit depth                   : 16 bits
    Compression mode            : Lossy
    Stream size                 : 317 MiB (6%)
    Title                       : AC3_5.1_Itunes_Esp
    Language                    : Spanish
    Service kind                : Complete Main
    Default                     : Yes
    Forced                      : No
    Statistics Tags Issue       : mkvmerge v25.0.0 ('Prog Noir') 64-bit 2018-10-17 04:09:12 / mkvmerge v25.0.0 ('Prog Noir') 64-bit 2018-10-17 04:09:12 / UTC 2018-08-28T13:47:51Z
    FromStats_BitRate           : 384000
    FromStats_Duration          : 01:55:21.248000000
    FromStats_FrameCount        : 216289
    FromStats_StreamSize        : 332219904

    Audio #2
    ID                          : 3
    Format                      : DTS
    Format/Info                 : Digital Theater Systems
    Mode                        : 16
    Format settings, Endianness : Big
    Codec ID                    : A_DTS
    Duration                    : 1 h 55 min
    Bit rate mode               : Constant
    Bit rate                    : 1 509 kb/s
    Channel(s)                  : 6 channels
    Channel positions           : Front: L C R, Side: L R, LFE
    Sampling rate               : 48.0 kHz
    Frame rate                  : 93.750 FPS (512 SPF)
    Bit depth                   : 16 bits
    Compression mode            : Lossy
    Stream size                 : 1.22 GiB (22%)
    Title                       : DTS_5.1_Bluray_Eng
    Language                    : English
    Default                     : No
    Forced                      : No
    Statistics Tags Issue       : mkvmerge v25.0.0 ('Prog Noir') 64-bit 2018-10-17 04:09:12 / mkvmerge v25.0.0 ('Prog Noir') 64-bit 2018-10-17 04:09:12 / UTC 2018-08-28T13:47:51Z
    FromStats_BitRate           : 1508999
    FromStats_Duration          : 01:55:22.027000000
    FromStats_FrameCount        : 648940
    FromStats_StreamSize        : 1305667280

    Text #1
    ID                          : 4
    Format                      : UTF-8
    Codec ID                    : S_TEXT/UTF8
    Codec ID/Info               : UTF-8 Plain Text
    Title                       : Sub_Forzados
    Language                    : Spanish
    Default                     : Yes
    Forced                      : Yes
    Statistics Tags Issue       : mkvmerge v25.0.0 ('Prog Noir') 64-bit 2018-10-17 04:09:12 / mkvmerge v25.0.0 ('Prog Noir') 64-bit 2018-10-17 04:09:12 / UTC 2018-08-28T13:47:51Z
    FromStats_BitRate           : 2
    FromStats_Duration          : 01:49:57.292000000
    FromStats_FrameCount        : 44
    FromStats_StreamSize        : 1657

    Text #2
    ID                          : 5
    Format                      : UTF-8
    Codec ID                    : S_TEXT/UTF8
    Codec ID/Info               : UTF-8 Plain Text
    Title                       : Sub_Esp
    Language                    : Spanish
    Default                     : No
    Forced                      : No
    Statistics Tags Issue       : mkvmerge v25.0.0 ('Prog Noir') 64-bit 2018-10-17 04:09:12 / mkvmerge v25.0.0 ('Prog Noir') 64-bit 2018-10-17 04:09:12 / UTC 2018-08-28T13:47:51Z
    FromStats_BitRate           : 32
    FromStats_Duration          : 01:49:57.292000000
    FromStats_FrameCount        : 975
    FromStats_StreamSize        : 26792

    Text #3
    ID                          : 6
    Format                      : PGS
    Muxing mode                 : zlib
    Codec ID                    : S_HDMV/PGS
    Codec ID/Info               : Picture based subtitle format used on BDs/HD-DVDs
    Title                       : Sub_Eng [PGS]
    Language                    : English
    Default                     : No
    Forced                      : No
    Statistics Tags Issue       : mkvmerge v25.0.0 ('Prog Noir') 64-bit 2018-10-17 04:09:12 / mkvmerge v25.0.0 ('Prog Noir') 64-bit 2018-10-17 04:09:12 / UTC 2018-08-28T13:47:51Z
    FromStats_BitRate           : 3233
    FromStats_Duration          : 00:17:24.335000000
    FromStats_FrameCount        : 44
    FromStats_StreamSize        : 422052

    Menu
    00:00:00.000                : :Chapter 1
    00:09:58.807                : :Chapter 2
    00:19:46.435                : :Chapter 3
    00:29:14.544                : :Chapter 4
    00:38:53.915                : :Chapter 5
    00:49:26.797                : :Chapter 6
    00:58:29.589                : :Chapter 7
    01:07:49.190                : :Chapter 8
    01:16:24.705                : :Chapter 9
    01:24:53.714                : :Chapter 10
    01:32:54.194                : :Chapter 11
    01:44:36.937                : :Chapter 12

  • Peso: 5.57 GiB

Sinopsis

Descargar La jungla (2017) Full 1080p Latino; Mega, google Drive. Cuenta la historia real de Yossi Ghinsberg, un joven aventurero que vivió para escribir un bestseller de memorias sobre su aventura en el interior del Amazonas. Con una guía incompleta y dos amigos más, el viaje se convirtió en un calvario psicológico y aterrador en el que lucharon por sobrevivir ante las amenazas de los elementos más oscuros de la naturaleza humana.

Ficha técnica

Video trailer de la película

Enlaces de descarga

Rip de Bluray

Descargar La jungla (2017) Full 1080p Latino




Aportes de DPeliculasHDmega la pass es:dpeliculashdmega.org Aportes de CinemaniaHD la pass es:cinemaniahdd.com

Películas relacionadas

  • El Vacio (2018) Temporada 1 NF 1080p Latino

    2018
    El Vacio (2018) Temporada 1 NF 1080p Latino

    0.0 0h 25m 2018

    Tres adolescentes despiertan en un reino extraño lleno de portales mágicos, enigmas desconcertantes...

    Director: Vito Viscomi

    Género: Animación

    Actores: Mark Hildreth

  • Wolf Warrior 2 (2017) 1080p Latino

    2017
    Wolf Warrior 2 (2017) 1080p Latino

    0.0 2h 6m 2017

    Secuela de la película de acción exitosa "Wolf Warrior" (2015) La operación más peligrosa de las...

    Director: Wu Jing

    Género: Acción

    Actores: Yu Qian

  • The Front Runner (2018) Full 1080p Latino

    2018
    The Front Runner (2018) Full 1080p Latino

    0.0 1h 53m 2018

    Narra la campaña presidencial del senador estadounidense Gary Hart, que tuvo lugar en 1988, momento...

    Director: Jason Reitman

    Género: Drama

    Actores: William Walker

  • Robin Hood orígenes (2018) Full 1080p Latino

    2018
    Robin Hood orígenes (2018) Full 1080p Latino

    0.0 1h 56m 2018

    Cuando el joven Robin Hood (Taron Egerton) regresa a su hogar, endurecido, tras luchar como guerrero...

    Director: Otto Bathurst

    Género: Acción

    Actores: Yasen Atour

Comentarios 1
  • Oswald JG - 21 octubre, 2018

    ➪★★★Muchas gracias , lo maximo gracias★★★