×

¿Problemas para descargar con Mozilla, EDGE? Deshabilita la opción "Abrir vinculos en una pestaña nueva" tal como lo muestra ésta imagen.

La jefa (2022) NF WEB-DL 1080p Castellano

294 vistas

Información de La jefa (2022) NF WEB-DL 1080p Castellano

Datos de la película

  • Calidad: WEBDL
  • Audio: Español España AC3 5.1 Netflix
  • Subtitulos: No
  • Resolución: 1920x1080p
  • Formato: MKV
  • Codec: H.264
  • Encoder: Melkor
  • Mediainfo: Clic para Mostrar Datos Ver
  • La Jefa (2022) NF WebDL 1080p Cast.mkv
    Format                      : Matroska
    Format version              : Version 4
    File size                   : 2.49 GiB
    Duration                    : 1 h 50 min
    Overall bit rate mode       : Variable
    Overall bit rate            : 3 222 kb/s
    Movie name                  : La Jefa (2022) CinemaniaHDD.Net
    Encoded date                : UTC 2022-09-04 02:04:13
    Writing application         : mkvmerge v56.1.0 ('My Friend') 64-bit
    Writing library             : libebml v1.4.2 + libmatroska v1.6.4
    Attachments                 : CINEMANIAHD.png

    Video
    ID                          : 1
    Format                      : AVC
    Format/Info                 : Advanced Video Codec
    Format profile              : Main@L4
    Format settings             : CABAC / 3 Ref Frames
    Format settings, CABAC      : Yes
    Format settings, Reference  : 3 frames
    Codec ID                    : V_MPEG4/ISO/AVC
    Duration                    : 1 h 50 min
    Bit rate mode               : Variable
    Bit rate                    : 1 940 kb/s
    Nominal bit rate            : 1 738 kb/s
    Maximum bit rate            : 3 735 kb/s
    Width                       : 1 920 pixels
    Height                      : 1 080 pixels
    Display aspect ratio        : 16:9
    Frame rate mode             : Constant
    Frame rate                  : 24.000 FPS
    Color space                 : YUV
    Chroma subsampling          : 4:2:0
    Bit depth                   : 8 bits
    Scan type                   : Progressive
    Bits/(Pixel*Frame)          : 0.039
    Stream size                 : 1.50 GiB (60%)
    Title                       : WEB HD1080p [CinemaniaHDD]
    Writing library             : x264 core 148 r2727 7d026e8
    Encoding settings           : cabac=1 / ref=3 / deblock=1:0:0 / analyse=0x1:0x111 / me=umh / subme=10 / psy=1 / psy_rd=1.00:0.00 / mixed_ref=1 / me_range=24 / chroma_me=1 / trellis=2 / 8x8dct=0 / cqm=0 / deadzone=21,11 / fast_pskip=1 / chroma_qp_offset=-2 / threads=6 / lookahead_threads=1 / sliced_threads=0 / nr=0 / decimate=1 / interlaced=0 / bluray_compat=0 / stitchable=1 / constrained_intra=0 / bframes=2 / b_pyramid=0 / b_adapt=2 / b_bias=0 / direct=3 / weightb=1 / open_gop=0 / weightp=2 / keyint=250 / keyint_min=24 / scenecut=0 / intra_refresh=0 / rc_lookahead=48 / rc=2pass / mbtree=1 / bitrate=1738 / ratetol=1.0 / qcomp=0.50 / qpmin=6 / qpmax=51 / qpstep=4 / cplxblur=20.0 / qblur=0.5 / vbv_maxrate=3735 / vbv_bufsize=4980 / nal_hrd=vbr / filler=0 / ip_ratio=1.40 / aq=1:1.00
    Default                     : Yes
    Forced                      : Yes

    Audio #1
    ID                          : 2
    Format                      : AC-3
    Format/Info                 : Audio Coding 3
    Commercial name             : Dolby Digital
    Codec ID                    : A_AC3
    Duration                    : 1 h 50 min
    Bit rate mode               : Constant
    Bit rate                    : 640 kb/s
    Channel(s)                  : 6 channels
    Channel layout              : L R C LFE Ls Rs
    Sampling rate               : 48.0 kHz
    Frame rate                  : 31.250 FPS (1536 SPF)
    Compression mode            : Lossy
    Stream size                 : 507 MiB (20%)
    Title                       : Español Castellano [CinemaniaHDD]
    Language                    : Spanish
    Service kind                : Complete Main
    Default                     : Yes
    Forced                      : Yes

    Audio #2
    ID                          : 3
    Format                      : E-AC-3
    Format/Info                 : Enhanced AC-3
    Commercial name             : Dolby Digital Plus
    Codec ID                    : A_EAC3
    Duration                    : 1 h 50 min
    Bit rate mode               : Constant
    Bit rate                    : 640 kb/s
    Channel(s)                  : 6 channels
    Channel layout              : L R C LFE Ls Rs
    Sampling rate               : 48.0 kHz
    Frame rate                  : 31.250 FPS (1536 SPF)
    Compression mode            : Lossy
    Stream size                 : 507 MiB (20%)
    Title                       : Español Castellano EAC3 [CinemaniaHDD]
    Language                    : Spanish
    Service kind                : Complete Main
    Default                     : No
    Forced                      : No

  • Peso: 2.49 GiB

Sinopsis

Descargar La jefa (2022) NF WEB-DL 1080p Castellano. Sofía, una ambiciosa trabajadora de una multinacional de moda nupcial, se queda embarazada sin haberlo planeado. Sin familia en España e incapaz de abortar, dadas sus convicciones católicas, Sofía parece abocada a volver a su país y abandonar la prometedora carrera profesional por la que tanto ha luchado. Sin embargo, su jefa, una mujer hecha a sí misma a la que Sofía admira por encima de todo le hace una inusual proposición: Darle el hijo en adopción a ella, y a cambio poder continuar con su promoción dentro de la empresa. Sofía acepta la oferta, sin saber que no todo es como su jefa le ha contado…

Ficha técnica

Video trailer de la película

Enlaces de descarga

Rip de Bluray

Descargar La jefa (2022) NF WEB-DL 1080p Castellano




Aportes de DPeliculasHDmega la pass es:dpeliculashdmega.org Aportes de CinemaniaHD la pass es:cinemaniahdd.com Aportes recientes:cinemaniahdd.net
Guardado en : Drama , Netflix

Películas relacionadas

descargar La jefa (2022) NF WEB-DL 1080p Castellano WEBDL 1080p gratis, La jefa (2022) NF WEB-DL 1080p Castellano WEBDL mega 1 link, La jefa (2022) NF WEB-DL 1080p Castellano WEBDL pelicula completa, descargar La jefa (2022) NF WEB-DL 1080p Castellano WEBDL gratis en mega.

La jefa (2022) NF WEB-DL 1080p Castellano pelicula full hd, La jefa (2022) NF WEB-DL 1080p Castellano mega latino, La jefa (2022) NF WEB-DL 1080p Castellano 4k latino, La jefa (2022) NF WEB-DL 1080p Castellano pelicula completa, La jefa (2022) NF WEB-DL 1080p Castellano descargar gratis, descargar La jefa (2022) NF WEB-DL 1080p Castellano pelicula latino, La jefa (2022) NF WEB-DL 1080p Castellano 1 link mega, La jefa (2022) NF WEB-DL 1080p Castellano 1 link google drive, La jefa (2022) NF WEB-DL 1080p Castellano hd 1080p latino.
Comentarios 0