×

¿Problemas para descargar con Mozilla, EDGE? Deshabilita la opción "Abrir vinculos en una pestaña nueva" tal como lo muestra ésta imagen.

La Influencer (2023) Temporada 1 NF WEB-DL 1080p Latino

68 vistas

Información de La Influencer (2023) Temporada 1 NF WEB-DL 1080p Latino

Datos de la película

  • Calidad: WEBDL
  • Audio: Español Latino AC3 5.1 Netflix
  • Subtitulos: Español Latino SRT- FORZADOS SRT
  • Resolución: 1920x1080p
  • Formato: MKV
  • Codec: H.264
  • Encoder: Melkor
  • Mediainfo: Clic para Mostrar Datos Ver
  • The Influencer S01E01 (2023) NF WEB 1080p Latino.mkv
    Format                      : Matroska
    Format version              : Version 4
    File size                   : 1.79 GiB
    Duration                    : 1 h 1 min
    Overall bit rate mode       : Variable
    Overall bit rate            : 4 123 kb/s
    Movie name                  : The Influencer S01E01 - Episode 1  CinemaniaHDD.Net
    Encoded date                : UTC 2023-12-18 05:28:39
    Writing application         : mkvmerge v59.0.0 ('Shining Star') 64-bit
    Writing library             : libebml v1.4.2 + libmatroska v1.6.4
    Attachments                 : CINEMANIAHD.png
    Site                        : CinemaniaHDD.Net
    Uploader                    : Melkor

    Video
    ID                          : 1
    Format                      : AVC
    Format/Info                 : Advanced Video Codec
    Format profile              : Main@L4
    Format settings             : CABAC / 3 Ref Frames
    Format settings, CABAC      : Yes
    Format settings, Reference  : 3 frames
    Codec ID                    : V_MPEG4/ISO/AVC
    Duration                    : 1 h 1 min
    Bit rate mode               : Variable
    Bit rate                    : 3 474 kb/s
    Maximum bit rate            : 4 701 kb/s
    Width                       : 1 920 pixels
    Height                      : 1 080 pixels
    Display aspect ratio        : 16:9
    Frame rate mode             : Constant
    Frame rate                  : 23.976 (24000/1001) FPS
    Color space                 : YUV
    Chroma subsampling          : 4:2:0
    Bit depth                   : 8 bits
    Scan type                   : Progressive
    Bits/(Pixel*Frame)          : 0.070
    Stream size                 : 1.51 GiB (84%)
    Title                       : WEB HD1080p [CinemaniaHDD]
    Writing library             : x264 core 148 r2727 7d026e8
    Encoding settings           : cabac=1 / ref=3 / deblock=1:0:0 / analyse=0x1:0x111 / me=umh / subme=10 / psy=1 / psy_rd=1.00:0.00 / mixed_ref=1 / me_range=24 / chroma_me=1 / trellis=2 / 8x8dct=0 / cqm=0 / deadzone=21,11 / fast_pskip=1 / chroma_qp_offset=-2 / threads=6 / lookahead_threads=1 / sliced_threads=0 / nr=0 / decimate=1 / interlaced=0 / bluray_compat=0 / stitchable=1 / constrained_intra=0 / bframes=2 / b_pyramid=0 / b_adapt=2 / b_bias=0 / direct=3 / weightb=1 / open_gop=0 / weightp=2 / keyint=240 / keyint_min=121 / scenecut=0 / intra_refresh=0 / rc_lookahead=48 / rc=2pass / mbtree=1 / bitrate=3474 / ratetol=1.0 / qcomp=0.50 / qpmin=6 / qpmax=51 / qpstep=4 / cplxblur=20.0 / qblur=0.5 / vbv_maxrate=4701 / vbv_bufsize=7834 / nal_hrd=vbr / filler=0 / ip_ratio=1.40 / aq=1:1.00
    Default                     : Yes
    Forced                      : Yes

    Audio
    ID                          : 2
    Format                      : E-AC-3
    Format/Info                 : Enhanced AC-3
    Commercial name             : Dolby Digital Plus
    Codec ID                    : A_EAC3
    Duration                    : 1 h 1 min
    Bit rate mode               : Constant
    Bit rate                    : 640 kb/s
    Channel(s)                  : 6 channels
    Channel layout              : L R C LFE Ls Rs
    Sampling rate               : 48.0 kHz
    Frame rate                  : 31.250 FPS (1536 SPF)
    Compression mode            : Lossy
    Stream size                 : 284 MiB (16%)
    Title                       : Español Latino [CinemaniaHDD]
    Language                    : Spanish
    Service kind                : Complete Main
    Default                     : Yes
    Forced                      : Yes

    Text #1
    ID                          : 3
    Format                      : UTF-8
    Codec ID                    : S_TEXT/UTF8
    Codec ID/Info               : UTF-8 Plain Text
    Duration                    : 13 min 9 s
    Bit rate                    : 1 b/s
    Count of elements           : 7
    Stream size                 : 135 Bytes (0%)
    Title                       : Forzados-SRT [CinemaniaHDD]
    Language                    : Spanish
    Default                     : Yes
    Forced                      : Yes

    Text #2
    ID                          : 4
    Format                      : UTF-8
    Codec ID                    : S_TEXT/UTF8
    Codec ID/Info               : UTF-8 Plain Text
    Duration                    : 59 min 40 s
    Bit rate                    : 95 b/s
    Count of elements           : 1060
    Stream size                 : 41.6 KiB (0%)
    Title                       : Español-SRT [CinemaniaHDD]
    Language                    : Spanish
    Default                     : No
    Forced                      : No

    Text #3
    ID                          : 5
    Format                      : UTF-8
    Codec ID                    : S_TEXT/UTF8
    Codec ID/Info               : UTF-8 Plain Text
    Duration                    : 59 min 40 s
    Bit rate                    : 81 b/s
    Count of elements           : 1053
    Stream size                 : 35.6 KiB (0%)
    Title                       : Ingles-SRT [CinemaniaHDD]
    Language                    : English
    Default                     : No
    Forced                      : No

  • Peso: 1.4 GiB -- 22 GiB -- 16 Chapters

Sinopsis

Descargar La Influencer (2023) Temporada 1 NF WEB-DL 1080p Latino. Después de un fallido ardid en las redes sociales, una influencer se ve forzada a reconstruir su reputación en el despiadado mundillo de internet.

Ficha técnica

  • Titulo original: La Influencer
  • Fecha de lanzamiento: 13-12-2023 (BR)
  • Género: Netflix, Series

Video trailer de la película

Enlaces de descarga

Rip de Bluray

Descargar La Influencer (2023) Temporada 1 NF WEB-DL 1080p Latino




Aportes de DPeliculasHDmega la pass es:dpeliculashdmega.org Aportes de CinemaniaHD la pass es:cinemaniahdd.com Aportes recientes:cinemaniahdd.net
Guardado en : Netflix , Series

Películas relacionadas

descargar La Influencer (2023) Temporada 1 NF WEB-DL 1080p Latino WEBDL 1080p gratis, La Influencer (2023) Temporada 1 NF WEB-DL 1080p Latino WEBDL mega 1 link, La Influencer (2023) Temporada 1 NF WEB-DL 1080p Latino WEBDL serie completa, descargar La Influencer (2023) Temporada 1 NF WEB-DL 1080p Latino WEBDL gratis en mega.

La Influencer (2023) Temporada 1 NF WEB-DL 1080p Latino pelicula full hd, La Influencer (2023) Temporada 1 NF WEB-DL 1080p Latino mega latino, La Influencer (2023) Temporada 1 NF WEB-DL 1080p Latino 4k latino, La Influencer (2023) Temporada 1 NF WEB-DL 1080p Latino pelicula completa, La Influencer (2023) Temporada 1 NF WEB-DL 1080p Latino descargar gratis, descargar La Influencer (2023) Temporada 1 NF WEB-DL 1080p Latino pelicula latino, La Influencer (2023) Temporada 1 NF WEB-DL 1080p Latino 1 link mega, La Influencer (2023) Temporada 1 NF WEB-DL 1080p Latino 1 link google drive, La Influencer (2023) Temporada 1 NF WEB-DL 1080p Latino hd 1080p latino.
Comentarios 0