×

¿Problemas para descargar con Mozilla, EDGE? Deshabilita la opción "Abrir vinculos en una pestaña nueva" tal como lo muestra ésta imagen.

La hora del miedo (2019) REMUX 1080p Latino

128 vistas

Información de La hora del miedo (2019) REMUX 1080p Latino

Datos de la película

  • Calidad: Full 1080p
  • Audio: Español Latino AC3 5.1 WEB-DL - Ingles DTS 5.1 BLURAY
  • Subtitulos: Español Latino SRT- FORZADOS SRT
  • Resolución: 1920x1080p
  • Formato: MKV
  • Codec: H.264
  • Encoder: Melkor
  • Mediainfo: Clic para Mostrar Datos Ver
  • La Hora Del Miedo (2019) REMUX 1080p Latino.mkv
    Format                      : Matroska
    Format version              : Version 4
    File size                   : 22.2 GiB
    Duration                    : 1 h 38 min
    Overall bit rate mode       : Variable
    Overall bit rate            : 32.1 Mb/s
    Movie name                  : The Wolf Hour (2019) CinemaniaHDD.Net
    Encoded date                : UTC 2021-08-03 05:27:06
    Writing application         : mkvmerge v56.1.0 ('My Friend') 64-bit
    Writing library             : libebml v1.4.2 + libmatroska v1.6.4
    Attachments                 : CINEMANIAHD.png

    Video
    ID                          : 1
    Format                      : AVC
    Format/Info                 : Advanced Video Codec
    Format profile              : High@L4.1
    Format settings             : CABAC / 4 Ref Frames
    Format settings, CABAC      : Yes
    Format settings, Reference  : 4 frames
    Format settings, GOP        : M=3, N=24
    Codec ID                    : V_MPEG4/ISO/AVC
    Duration                    : 1 h 38 min
    Bit rate mode               : Constant
    Bit rate                    : 28.3 Mb/s
    Nominal bit rate            : 30.0 Mb/s
    Width                       : 1 920 pixels
    Height                      : 1 080 pixels
    Display aspect ratio        : 16:9
    Frame rate mode             : Constant
    Frame rate                  : 23.976 (24000/1001) FPS
    Standard                    : NTSC
    Color space                 : YUV
    Chroma subsampling          : 4:2:0
    Bit depth                   : 8 bits
    Scan type                   : Progressive
    Bits/(Pixel*Frame)          : 0.569
    Stream size                 : 19.5 GiB (88%)
    Title                       : REMUX HD1080p [CinemaniaHDD]
    Default                     : Yes
    Forced                      : No
    Color range                 : Limited
    Color primaries             : BT.709
    Transfer characteristics    : BT.709
    Matrix coefficients         : BT.709

    Audio #1
    ID                          : 2
    Format                      : AC-3
    Format/Info                 : Audio Coding 3
    Commercial name             : Dolby Digital
    Codec ID                    : A_AC3
    Duration                    : 1 h 38 min
    Bit rate mode               : Constant
    Bit rate                    : 384 kb/s
    Channel(s)                  : 6 channels
    Channel layout              : L R C LFE Ls Rs
    Sampling rate               : 48.0 kHz
    Frame rate                  : 31.250 FPS (1536 SPF)
    Compression mode            : Lossy
    Delay relative to video     : 29 ms
    Stream size                 : 272 MiB (1%)
    Title                       : Español Latino [CinemaniaHDD]
    Language                    : Spanish
    Service kind                : Complete Main
    Default                     : Yes
    Forced                      : No

    Audio #2
    ID                          : 3
    Format                      : DTS XLL
    Format/Info                 : Digital Theater Systems
    Commercial name             : DTS-HD Master Audio
    Codec ID                    : A_DTS
    Duration                    : 1 h 38 min
    Bit rate mode               : Variable
    Bit rate                    : 3 381 kb/s
    Channel(s)                  : 6 channels
    Channel layout              : C L R Ls Rs LFE
    Sampling rate               : 48.0 kHz
    Frame rate                  : 93.750 FPS (512 SPF)
    Bit depth                   : 24 bits
    Compression mode            : Lossless
    Stream size                 : 2.33 GiB (11%)
    Title                       : Ingles [CinemaniaHDD]
    Language                    : English
    Default                     : No
    Forced                      : No

    Text #1
    ID                          : 4
    Format                      : UTF-8
    Codec ID                    : S_TEXT/UTF8
    Codec ID/Info               : UTF-8 Plain Text
    Duration                    : 56 min 28 s
    Bit rate                    : 0 b/s
    Count of elements           : 8
    Stream size                 : 168 Bytes (0%)
    Title                       : Forzados-SRT [CinemaniaHDD]
    Language                    : Spanish
    Default                     : Yes
    Forced                      : No

    Text #2
    ID                          : 5
    Format                      : UTF-8
    Codec ID                    : S_TEXT/UTF8
    Codec ID/Info               : UTF-8 Plain Text
    Duration                    : 1 h 32 min
    Bit rate                    : 35 b/s
    Count of elements           : 729
    Stream size                 : 24.1 KiB (0%)
    Title                       : Español-SRT [CinemaniaHDD]
    Language                    : Spanish
    Default                     : No
    Forced                      : No

    Text #3
    ID                          : 6
    Format                      : UTF-8
    Codec ID                    : S_TEXT/UTF8
    Codec ID/Info               : UTF-8 Plain Text
    Duration                    : 1 h 30 min
    Bit rate                    : 35 b/s
    Count of elements           : 792
    Stream size                 : 23.4 KiB (0%)
    Title                       : Ingles-SRT [CinemaniaHDD]
    Language                    : English
    Default                     : No
    Forced                      : No

    Menu
    00:00:00.000                : Chapter 01
    00:09:40.538                : Chapter 02
    00:18:53.966                : Chapter 03
    00:25:40.164                : Chapter 04
    00:35:27.292                : Chapter 05
    00:45:40.029                : Chapter 06
    00:55:50.305                : Chapter 07
    01:00:45.559                : Chapter 08
    01:11:58.356                : Chapter 09
    01:20:20.315                : Chapter 10
    01:27:36.460                : Chapter 11
    01:33:14.172                : Chapter 12

  • Peso: 22.2 GiB

Sinopsis

Descargar La hora del miedo (2019) REMUX 1080p Latino. June E. Leigh fue una vez una figura conocida de la contracultura. Ahora vive sola en su apartamento casi aislada del mundo exterior. Es el famoso «Verano de Sam» y June solo tiene que mirar por la ventana para ver cómo la violencia se intensifica con el brutal calor del verano. La ciudad es una olla a presión a punto de explotar en los incendiarios disturbios de 1977 en Nueva York.

Ficha técnica

Video trailer de la película

Enlaces de descarga

Rip de Bluray

Descargar La hora del miedo (2019) REMUX 1080p Latino




Aportes de DPeliculasHDmega la pass es:dpeliculashdmega.org Aportes de CinemaniaHD la pass es:cinemaniahdd.com
Guardado en : Drama , Misterio , Remux , Suspenso

Películas relacionadas

descargar La hora del miedo (2019) REMUX 1080p Latino Full 1080p 1080p gratis, La hora del miedo (2019) REMUX 1080p Latino Full 1080p mega 1 link, La hora del miedo (2019) REMUX 1080p Latino Full 1080p pelicula completa, descargar La hora del miedo (2019) REMUX 1080p Latino Full 1080p gratis en mega.

La hora del miedo (2019) REMUX 1080p Latino pelicula full hd, La hora del miedo (2019) REMUX 1080p Latino mega latino, La hora del miedo (2019) REMUX 1080p Latino 4k latino, La hora del miedo (2019) REMUX 1080p Latino pelicula completa, La hora del miedo (2019) REMUX 1080p Latino descargar gratis, descargar La hora del miedo (2019) REMUX 1080p Latino pelicula latino, La hora del miedo (2019) REMUX 1080p Latino 1 link mega, La hora del miedo (2019) REMUX 1080p Latino 1 link google drive, La hora del miedo (2019) REMUX 1080p Latino hd 1080p latino.
Comentarios 0