×

¿Problemas para descargar con Mozilla, EDGE? Deshabilita la opción "Abrir vinculos en una pestaña nueva" tal como lo muestra ésta imagen.

La Hora de Tu Muerte (2019) 1080p Latino

2.029 vistas

Información de La Hora de Tu Muerte (2019) 1080p Latino

Datos de la película

  • Calidad: 1080p
  • Audio: Español Latino AC3 2.0 iTUNES - Ingles AC3 5.1 BLURAY
  • Subtitulos: Español Latino SRT- FORZADOS SRT
  • Resolución: 1920x804
  • Formato: MKV
  • Codec: H.264
  • Encoder: cinemaniahdd
  • Mediainfo: Clic para Mostrar Datos Ver
  • La Hora de Tu Muerte (2019) 1080p Latino.mkv
    Format                      : Matroska
    Format version              : Version 4
    File size                   : 2.59 GiB
    Duration                    : 1 h 30 min
    Overall bit rate            : 4 093 kb/s
    Movie name                  : La Hora de Tu Muerte (2019) - CinemaniaHDD.Net
    Encoded date                : UTC 2020-01-28 00:25:05
    Writing application         : mkvmerge v42.0.0 ('Overtime') 64-bit
    Writing library             : libebml v1.3.10 + libmatroska v1.5.2

    Video
    ID                          : 1
    Format                      : AVC
    Format/Info                 : Advanced Video Codec
    Format profile              : Main@L4
    Format settings             : CABAC / 4 Ref Frames
    Format settings, CABAC      : Yes
    Format settings, ReFrames   : 4 frames
    Codec ID                    : V_MPEG4/ISO/AVC
    Duration                    : 1 h 30 min
    Bit rate                    : 3 500 kb/s
    Width                       : 1 920 pixels
    Height                      : 804 pixels
    Display aspect ratio        : 2.40:1
    Frame rate mode             : Constant
    Frame rate                  : 23.976 (24000/1001) FPS
    Color space                 : YUV
    Chroma subsampling          : 4:2:0
    Bit depth                   : 8 bits
    Scan type                   : Progressive
    Bits/(Pixel*Frame)          : 0.095
    Stream size                 : 2.15 GiB (83%)
    Title                       : CinemaniaHDD
    Writing library             : x264 core 157 r2935 545de2f
    Encoding settings           : cabac=1 / ref=3 / deblock=1:0:0 / analyse=0x1:0x111 / me=hex / subme=7 / psy=1 / psy_rd=1.00:0.00 / mixed_ref=1 / me_range=16 / chroma_me=1 / trellis=1 / 8x8dct=0 / cqm=0 / deadzone=21,11 / fast_pskip=1 / chroma_qp_offset=-2 / threads=25 / lookahead_threads=4 / sliced_threads=0 / nr=0 / decimate=1 / interlaced=0 / bluray_compat=0 / constrained_intra=0 / bframes=3 / b_pyramid=2 / b_adapt=1 / b_bias=0 / direct=1 / weightb=1 / open_gop=0 / weightp=2 / keyint=240 / keyint_min=24 / scenecut=40 / intra_refresh=0 / rc_lookahead=40 / rc=abr / mbtree=1 / bitrate=3500 / ratetol=1.0 / qcomp=0.60 / qpmin=0 / qpmax=69 / qpstep=4 / vbv_maxrate=20000 / vbv_bufsize=25000 / nal_hrd=none / filler=0 / ip_ratio=1.40 / aq=1:1.00
    Default                     : Yes
    Forced                      : No
    Color range                 : Limited
    Color primaries             : BT.709
    Transfer characteristics    : BT.709
    Matrix coefficients         : BT.709

    Audio #1
    ID                          : 2
    Format                      : AC-3
    Format/Info                 : Audio Coding 3
    Commercial name             : Dolby Digital
    Codec ID                    : A_AC3
    Duration                    : 1 h 30 min
    Bit rate mode               : Constant
    Bit rate                    : 256 kb/s
    Channel(s)                  : 2 channels
    Channel layout              : L R
    Sampling rate               : 48.0 kHz
    Frame rate                  : 31.250 FPS (1536 SPF)
    Bit depth                   : 16 bits
    Compression mode            : Lossy
    Delay relative to video     : -5 ms
    Stream size                 : 166 MiB (6%)
    Title                       : Español latino [CinemaniaHDD]
    Language                    : Spanish
    Service kind                : Complete Main
    Default                     : Yes
    Forced                      : No

    Audio #2
    ID                          : 3
    Format                      : AC-3
    Format/Info                 : Audio Coding 3
    Commercial name             : Dolby Digital
    Codec ID                    : A_AC3
    Duration                    : 1 h 30 min
    Bit rate mode               : Constant
    Bit rate                    : 448 kb/s
    Channel(s)                  : 6 channels
    Channel layout              : L R C LFE Ls Rs
    Sampling rate               : 48.0 kHz
    Frame rate                  : 31.250 FPS (1536 SPF)
    Bit depth                   : 16 bits
    Compression mode            : Lossy
    Delay relative to video     : -5 ms
    Stream size                 : 291 MiB (11%)
    Title                       : Inglés [CinemaniaHDD]
    Language                    : English
    Service kind                : Complete Main
    Default                     : No
    Forced                      : No

    Text #1
    ID                          : 4
    Format                      : UTF-8
    Codec ID                    : S_TEXT/UTF8
    Codec ID/Info               : UTF-8 Plain Text
    Duration                    : 1 h 21 min
    Bit rate                    : 2 b/s
    Count of elements           : 49
    Stream size                 : 1.29 KiB (0%)
    Title                       : Forzados [CinemaniaHDD]
    Language                    : Spanish
    Default                     : Yes
    Forced                      : Yes

    Text #2
    ID                          : 5
    Format                      : UTF-8
    Codec ID                    : S_TEXT/UTF8
    Codec ID/Info               : UTF-8 Plain Text
    Duration                    : 1 h 29 min
    Bit rate                    : 44 b/s
    Count of elements           : 1130
    Stream size                 : 28.9 KiB (0%)
    Title                       : Español latino [CinemaniaHDD]
    Language                    : Spanish
    Default                     : No
    Forced                      : No

    Menu
    00:00:00.000                : :Chapter 1
    00:03:14.695                : :Chapter 2
    00:08:07.028                : :Chapter 3
    00:14:14.937                : :Chapter 4
    00:18:02.999                : :Chapter 5
    00:24:23.462                : :Chapter 6
    00:31:47.989                : :Chapter 7
    00:35:37.552                : :Chapter 8
    00:39:21.943                : :Chapter 9
    00:44:15.736                : :Chapter 10
    00:47:26.177                : :Chapter 11
    00:50:52.925                : :Chapter 12
    00:55:49.304                : :Chapter 13
    00:59:32.152                : :Chapter 14
    01:07:01.059                : :Chapter 15
    01:09:26.496                : :Chapter 16
    01:15:02.456                : :Chapter 17
    01:20:53.932                : :Chapter 18
    01:22:54.261                : :Chapter 19
    01:24:05.165                : :Chapter 20

     

  • Peso: 2.59 GiB

Sinopsis

Una enfermera descarga una app que informa al usuario de cuándo morirá. La app le comunica a la joven que fallecerá en tres días y, a partir de ese momento, empieza una carrera frenética por sobrevivir a lo que parece inevitable.

Ficha técnica

Video trailer de la película

Enlaces de descarga

Rip de Bluray

Descargar La Hora de Tu Muerte (2019) 1080p Latino




Aportes de DPeliculasHDmega la pass es:dpeliculashdmega.org Aportes de CinemaniaHD la pass es:cinemaniahdd.com
Guardado en : HD 1080p , Suspenso , Terror

Películas relacionadas

descargar La Hora de Tu Muerte (2019) 1080p Latino 1080p 1080p gratis, La Hora de Tu Muerte (2019) 1080p Latino 1080p mega 1 link, La Hora de Tu Muerte (2019) 1080p Latino 1080p pelicula completa, descargar La Hora de Tu Muerte (2019) 1080p Latino 1080p gratis en mega.

La Hora de Tu Muerte (2019) 1080p Latino pelicula full hd, La Hora de Tu Muerte (2019) 1080p Latino mega latino, La Hora de Tu Muerte (2019) 1080p Latino 4k latino, La Hora de Tu Muerte (2019) 1080p Latino pelicula completa, La Hora de Tu Muerte (2019) 1080p Latino descargar gratis, descargar La Hora de Tu Muerte (2019) 1080p Latino pelicula latino, La Hora de Tu Muerte (2019) 1080p Latino 1 link mega, La Hora de Tu Muerte (2019) 1080p Latino 1 link google drive, La Hora de Tu Muerte (2019) 1080p Latino hd 1080p latino.
Comentarios 0