×

¿Problemas para descargar con Mozilla, EDGE? Deshabilita la opción "Abrir vinculos en una pestaña nueva" tal como lo muestra ésta imagen.

La historia sin fin (1984) REMUX 1080p Latino – CMHDD

489 vistas

Información de La historia sin fin (1984) REMUX 1080p Latino – CMHDD

Datos de la película

  • Calidad: Full 1080p
  • Audio: Español Latino AC3 2.0 BLURAY - Ingles DTS 5.1 BLURAY
  • Subtitulos: Español Latino SRT
  • Resolución: 1920x1080p
  • Formato: MKV
  • Codec: H.264
  • Encoder: Dracarys
  • Mediainfo: Clic para Mostrar Datos Ver
  • Format                      : Matroska
    Format version              : Version 4
    File size                   : 16.8 GiB
    Duration                    : 1 h 34 min
    Overall bit rate mode       : Variable
    Overall bit rate            : 25.5 Mb/s
    Movie name                  : La historia sin fin (1984) REMUX 1080p Latino - CMHDD
    Encoded date                : UTC 2020-09-03 21:43:49
    Writing application         : mkvmerge v46.0.0 ('No Deeper Escape') 64-bit
    Writing library             : libebml v1.3.10 + libmatroska v1.5.2

    Video
    ID                          : 1
    Format                      : VC-1
    Format profile              : Advanced@L3
    Codec ID                    : V_MS/VFW/FOURCC / WVC1
    Codec ID/Hint               : Microsoft
    Duration                    : 1 h 34 min
    Bit rate                    : 23.1 Mb/s
    Width                       : 1 920 pixels
    Height                      : 1 080 pixels
    Display aspect ratio        : 16:9
    Frame rate mode             : Constant
    Frame rate                  : 23.976 (24000/1001) FPS
    Color space                 : YUV
    Chroma subsampling          : 4:2:0
    Bit depth                   : 8 bits
    Scan type                   : Progressive
    Compression mode            : Lossy
    Bits/(Pixel*Frame)          : 0.464
    Stream size                 : 15.2 GiB (90%)
    Default                     : Yes
    Forced                      : No

    Audio #1
    ID                          : 2
    Format                      : AC-3
    Format/Info                 : Audio Coding 3
    Commercial name             : Dolby Digital
    Codec ID                    : A_AC3
    Duration                    : 1 h 34 min
    Bit rate mode               : Constant
    Bit rate                    : 192 kb/s
    Channel(s)                  : 2 channels
    Channel layout              : L R
    Sampling rate               : 48.0 kHz
    Frame rate                  : 31.250 FPS (1536 SPF)
    Compression mode            : Lossy
    Stream size                 : 129 MiB (1%)
    Language                    : Spanish
    Service kind                : Complete Main
    Default                     : Yes
    Forced                      : No

    Audio #2
    ID                          : 3
    Format                      : DTS XLL
    Format/Info                 : Digital Theater Systems
    Commercial name             : DTS-HD Master Audio
    Codec ID                    : A_DTS
    Duration                    : 1 h 34 min
    Bit rate mode               : Variable
    Bit rate                    : 2 222 kb/s
    Channel(s)                  : 6 channels
    Channel layout              : C L R Ls Rs LFE
    Sampling rate               : 48.0 kHz
    Frame rate                  : 93.750 FPS (512 SPF)
    Bit depth                   : 16 bits
    Compression mode            : Lossless
    Stream size                 : 1.46 GiB (9%)
    Language                    : English
    Default                     : No
    Forced                      : No

    Text #1
    ID                          : 4
    Format                      : PGS
    Muxing mode                 : zlib
    Codec ID                    : S_HDMV/PGS
    Codec ID/Info               : Picture based subtitle format used on BDs/HD-DVDs
    Duration                    : 1 h 33 min
    Bit rate                    : 16.6 kb/s
    Count of elements           : 1328
    Stream size                 : 11.1 MiB (0%)
    Language                    : Spanish
    Default                     : No
    Forced                      : No

    Text #2
    ID                          : 5
    Format                      : UTF-8
    Codec ID                    : S_TEXT/UTF8
    Codec ID/Info               : UTF-8 Plain Text
    Duration                    : 1 h 33 min
    Bit rate                    : 31 b/s
    Count of elements           : 664
    Stream size                 : 21.6 KiB (0%)
    Language                    : Spanish
    Default                     : No
    Forced                      : No

  • Peso: 16.8 GiB

Sinopsis

Bastián Baltasar Bux es un niño de once años que descubre en una antigua librería un libro titulado “La historia interminable”, el cual posee poderes mágicos. Esa magia hace que el mismo Bastián se convierta en un héroe de esa historia que parece no terminarse nunca, en la que se unirá a Atreyu, otro niño, con el objetivo de salvar al mundo de fantasía.Escondido en el desván de su colegio, Bastián devora durante las horas de clase este enigmático libro, que relata la destrucción de todo un mundo lleno de fantasía. Una especie de «Nada» misteriosa destruye todo el país y a todas las criaturas que lo habitan. A medida que avanza en su lectura, Bastián se da cuenta de que la salvación de Fantasía depende de él; de que consiga entrar en el libro.

Ficha técnica

Video trailer de la película

Enlaces de descarga

Rip de Bluray

Descargar La historia sin fin (1984) REMUX 1080p Latino – CMHDD


Aportes de DPeliculasHDmega la pass es:dpeliculashdmega.org Aportes de CinemaniaHD la pass es:cinemaniahdd.com
Guardado en : Aventura , Drama , Familia , Fantasía

Películas relacionadas

  • Stromboli (2022) NF WEB-DL 1080p Latino

    Stromboli (2022) NF WEB-DL 1080p Latino

    2022
    Stromboli (2022) NF WEB-DL 1080p Latino

    1h 26m 2022

    Descargar Stromboli (2022) NF WEB-DL 1080p Latino. Sara, una mujer que se ha divorciado recientemente,...

    Director: Michiel van Erp

    Género: Drama

    Actores: Tim McInnerny

  • Infiesto (2023) NF WEB-DL 1080p Castellano

    Infiesto (2023) NF WEB-DL 1080p Castellano

    2023
    Infiesto (2023) NF WEB-DL 1080p Castellano

    1h 36m 2023

    Descargar Infiesto (2023) NF WEB-DL 1080p Castellano. Mientras el coronavirus trastoca sus vidas, dos...

    Director: Patxi Amezcua

    Género: Crimen

    Actores: Luis Zahera

  • Espiritu Libre (2023) NF WEB-DL 1080p Latino

    Espiritu Libre (2023) NF WEB-DL 1080p Latino

    2023
    Espiritu Libre (2023) NF WEB-DL 1080p Latino

    1h 49m 2023

    Descargar Espiritu Libre (2023) NF WEB-DL 1080p Latino. La película se basa en la increíble historia...

    Director: Sarah Spillane

    Género: Aventura

    Actores: Vivien Turner

  • Un mundo extraño (2022) HD BDRip 1080p Latino

    Un mundo extraño (2022) HD BDRip 1080p Latino

    2022
    Un mundo extraño (2022) HD BDRip 1080p Latino

    1h 42m 2022

    Descargar Un mundo extraño (2022) HD BDRip 1080p Latino. Los Clades son una familia conocida en todo...

    Director: Thai Bettistea

    Género: Animación

    Actores: Reed Buck

descargar La historia sin fin (1984) REMUX 1080p Latino – CMHDD Full 1080p 1080p gratis, La historia sin fin (1984) REMUX 1080p Latino – CMHDD Full 1080p mega 1 link, La historia sin fin (1984) REMUX 1080p Latino – CMHDD Full 1080p pelicula completa, descargar La historia sin fin (1984) REMUX 1080p Latino – CMHDD Full 1080p gratis en mega.

La historia sin fin (1984) REMUX 1080p Latino – CMHDD pelicula full hd, La historia sin fin (1984) REMUX 1080p Latino – CMHDD mega latino, La historia sin fin (1984) REMUX 1080p Latino – CMHDD 4k latino, La historia sin fin (1984) REMUX 1080p Latino – CMHDD pelicula completa, La historia sin fin (1984) REMUX 1080p Latino – CMHDD descargar gratis, descargar La historia sin fin (1984) REMUX 1080p Latino – CMHDD pelicula latino, La historia sin fin (1984) REMUX 1080p Latino – CMHDD 1 link mega, La historia sin fin (1984) REMUX 1080p Latino – CMHDD 1 link google drive, La historia sin fin (1984) REMUX 1080p Latino – CMHDD hd 1080p latino.
Comentarios 0