×

¿Problemas para descargar con Mozilla, EDGE? Deshabilita la opción "Abrir vinculos en una pestaña nueva" tal como lo muestra ésta imagen.

La historia sin fin (1984) HD 1080p Latino – CMHDD

415 vistas

Información de La historia sin fin (1984) HD 1080p Latino – CMHDD

Datos de la película

  • Calidad: 1080p
  • Audio: Español Latino AC3 2.0 BLURAY - Ingles AC3 5.1 BLURAY
  • Subtitulos: Español Latino SRT
  • Resolución: 1920x800p
  • Formato: MKV
  • Codec: H.264
  • Encoder: Dracarys
  • Mediainfo: Clic para Mostrar Datos Ver
  • Format                      : Matroska
    Format version              : Version 4
    File size                   : 2.83 GiB
    Duration                    : 1 h 34 min
    Overall bit rate            : 4 312 kb/s
    Movie name                  : La historia sin fin (1984) HD 1080p Latino - CMHDD
    Encoded date                : UTC 2020-09-03 21:48:22
    Writing application         : mkvmerge v46.0.0 ('No Deeper Escape') 64-bit
    Writing library             : libebml v1.3.10 + libmatroska v1.5.2

    Video
    ID                          : 1
    Format                      : AVC
    Format/Info                 : Advanced Video Codec
    Format profile              : High@L4.1
    Format settings             : CABAC / 5 Ref Frames
    Format settings, CABAC      : Yes
    Format settings, Reference  : 5 frames
    Codec ID                    : V_MPEG4/ISO/AVC
    Duration                    : 1 h 34 min
    Bit rate                    : 3 500 kb/s
    Width                       : 1 920 pixels
    Height                      : 800 pixels
    Display aspect ratio        : 2.40:1
    Frame rate mode             : Constant
    Frame rate                  : 23.976 (24000/1001) FPS
    Color space                 : YUV
    Chroma subsampling          : 4:2:0
    Bit depth                   : 8 bits
    Scan type                   : Progressive
    Bits/(Pixel*Frame)          : 0.095
    Stream size                 : 2.29 GiB (81%)
    Writing library             : x264 core 157 r2935 545de2f
    Encoding settings           : cabac=1 / ref=5 / deblock=1:0:0 / analyse=0x3:0x113 / me=hex / subme=8 / psy=1 / psy_rd=1.00:0.00 / mixed_ref=1 / me_range=16 / chroma_me=1 / trellis=2 / 8x8dct=1 / cqm=0 / deadzone=21,11 / fast_pskip=1 / chroma_qp_offset=-2 / threads=24 / lookahead_threads=4 / sliced_threads=0 / nr=0 / decimate=1 / interlaced=0 / bluray_compat=0 / constrained_intra=0 / bframes=3 / b_pyramid=2 / b_adapt=1 / b_bias=0 / direct=3 / weightb=1 / open_gop=0 / weightp=2 / keyint=240 / keyint_min=24 / scenecut=40 / intra_refresh=0 / rc_lookahead=50 / rc=abr / mbtree=1 / bitrate=3500 / ratetol=1.0 / qcomp=0.60 / qpmin=0 / qpmax=69 / qpstep=4 / vbv_maxrate=62500 / vbv_bufsize=78125 / nal_hrd=none / filler=0 / ip_ratio=1.40 / aq=1:1.00
    Default                     : Yes
    Forced                      : No
    Color range                 : Limited
    Color primaries             : BT.709
    Transfer characteristics    : BT.709
    Matrix coefficients         : BT.709

    Audio #1
    ID                          : 2
    Format                      : AC-3
    Format/Info                 : Audio Coding 3
    Commercial name             : Dolby Digital
    Codec ID                    : A_AC3
    Duration                    : 1 h 34 min
    Bit rate mode               : Constant
    Bit rate                    : 192 kb/s
    Channel(s)                  : 2 channels
    Channel layout              : L R
    Sampling rate               : 48.0 kHz
    Frame rate                  : 31.250 FPS (1536 SPF)
    Compression mode            : Lossy
    Stream size                 : 129 MiB (4%)
    Language                    : Spanish
    Service kind                : Complete Main
    Default                     : Yes
    Forced                      : No

    Audio #2
    ID                          : 3
    Format                      : AC-3
    Format/Info                 : Audio Coding 3
    Commercial name             : Dolby Digital
    Codec ID                    : A_AC3
    Duration                    : 1 h 34 min
    Bit rate mode               : Constant
    Bit rate                    : 640 kb/s
    Channel(s)                  : 6 channels
    Channel layout              : L R C LFE Ls Rs
    Sampling rate               : 48.0 kHz
    Frame rate                  : 31.250 FPS (1536 SPF)
    Compression mode            : Lossy
    Delay relative to video     : -5 ms
    Stream size                 : 431 MiB (15%)
    Language                    : English
    Service kind                : Complete Main
    Default                     : No
    Forced                      : No

    Text
    ID                          : 4
    Format                      : UTF-8
    Codec ID                    : S_TEXT/UTF8
    Codec ID/Info               : UTF-8 Plain Text
    Duration                    : 1 h 33 min
    Bit rate                    : 31 b/s
    Count of elements           : 664
    Stream size                 : 21.6 KiB (0%)
    Language                    : Spanish
    Default                     : No
    Forced                      : No

    Menu
    00:00:00.000                : :Chapter 1
    00:02:07.127                : :Chapter 2
    00:05:24.032                : :Chapter 3
    00:06:42.861                : :Chapter 4
    00:10:37.887                : :Chapter 5
    00:12:31.167                : :Chapter 6
    00:16:44.587                : :Chapter 7
    00:19:10.816                : :Chapter 8
    00:21:03.929                : :Chapter 9
    00:23:01.297                : :Chapter 10
    00:26:56.323                : :Chapter 11
    00:30:28.535                : :Chapter 12
    00:34:14.386                : :Chapter 13
    00:40:14.787                : :Chapter 14
    00:47:03.904                : :Chapter 15
    00:50:26.899                : :Chapter 16
    00:53:38.465                : :Chapter 17
    00:58:01.812                : :Chapter 18
    01:00:08.105                : :Chapter 19
    01:03:25.176                : :Chapter 20
    01:07:04.938                : :Chapter 21
    01:10:27.640                : :Chapter 22
    01:11:57.563                : :Chapter 23
    01:16:01.807                : :Chapter 24
    01:19:18.045                : :Chapter 25
    01:22:42.332                : :Chapter 26
    01:25:03.473                : :Chapter 27
    01:26:17.381                : :Chapter 28
    01:28:23.256                : :Chapter 29
    01:31:09.422                : :Chapter 30

  • Peso: 2.83 GiB

Sinopsis

Bastián Baltasar Bux es un niño de once años que descubre en una antigua librería un libro titulado “La historia interminable”, el cual posee poderes mágicos. Esa magia hace que el mismo Bastián se convierta en un héroe de esa historia que parece no terminarse nunca, en la que se unirá a Atreyu, otro niño, con el objetivo de salvar al mundo de fantasía.Escondido en el desván de su colegio, Bastián devora durante las horas de clase este enigmático libro, que relata la destrucción de todo un mundo lleno de fantasía. Una especie de «Nada» misteriosa destruye todo el país y a todas las criaturas que lo habitan. A medida que avanza en su lectura, Bastián se da cuenta de que la salvación de Fantasía depende de él; de que consiga entrar en el libro.

Ficha técnica

Video trailer de la película

Enlaces de descarga

Rip de Bluray

Descargar La historia sin fin (1984) HD 1080p Latino – CMHDD




Aportes de DPeliculasHDmega la pass es:dpeliculashdmega.org Aportes de CinemaniaHD la pass es:cinemaniahdd.com
Guardado en : Aventura , Drama , Familia , Fantasía , HD 1080p

Películas relacionadas

descargar La historia sin fin (1984) HD 1080p Latino – CMHDD 1080p 1080p gratis, La historia sin fin (1984) HD 1080p Latino – CMHDD 1080p mega 1 link, La historia sin fin (1984) HD 1080p Latino – CMHDD 1080p pelicula completa, descargar La historia sin fin (1984) HD 1080p Latino – CMHDD 1080p gratis en mega.

La historia sin fin (1984) HD 1080p Latino – CMHDD pelicula full hd, La historia sin fin (1984) HD 1080p Latino – CMHDD mega latino, La historia sin fin (1984) HD 1080p Latino – CMHDD 4k latino, La historia sin fin (1984) HD 1080p Latino – CMHDD pelicula completa, La historia sin fin (1984) HD 1080p Latino – CMHDD descargar gratis, descargar La historia sin fin (1984) HD 1080p Latino – CMHDD pelicula latino, La historia sin fin (1984) HD 1080p Latino – CMHDD 1 link mega, La historia sin fin (1984) HD 1080p Latino – CMHDD 1 link google drive, La historia sin fin (1984) HD 1080p Latino – CMHDD hd 1080p latino.
Comentarios 0