La guerra del planeta de los simios (2017) WEBDL 1080p Latino

8.637 vistas
1 estrella2 estrellas3 estrellas4 estrellas5 estrellas (5 votos, promedio: 3,80 de 5)
Cargando…

Información de La guerra del planeta de los simios (2017) WEBDL 1080p Latino

Datos de la película

  • Calidad: WEBDL
  • Audio: Español Latino AC3 2.0 iTunes - Ingles AC3 5.1 iTunes
  • Subtitulos: Español Latino SRT - Ingles SRT
  • Resolución: 1916x796p
  • Formato: MKV
  • Codec: H.264
  • Encoder: Dpelis
  • Mediainfo: Clic para Mostrar Datos Ver
  • War for the Planet of the Apes (2017) WEBDL 1080p Latino.mkv
    Format                      : Matroska
    Format version              : Version 4 / Version 2
    File size                   : 5.10 GiB
    Duration                    : 2 h 20 min
    Overall bit rate            : 5 205 kb/s
    Movie name                  : DPeliculasHDMega.ORG
    Encoded date                : UTC 2017-10-10 04:34:43
    Writing application         : mkvmerge v10.0.0 ('To Drown In You') 64bit
    Writing library             : libebml v1.3.4 + libmatroska v1.4.5
    Cover                       : Yes
    Attachments                 : cover.jpg

    Video
    ID                          : 1
    Format                      : AVC
    Format/Info                 : Advanced Video Codec
    Format profile              : [email protected]
    Format settings, CABAC      : Yes
    Format settings, RefFrames  : 5 frames
    Codec ID                    : V_MPEG4/ISO/AVC
    Duration                    : 2 h 20 min
    Bit rate                    : 4 562 kb/s
    Width                       : 1 916 pixels
    Height                      : 796 pixels
    Display aspect ratio        : 2.40:1
    Frame rate mode             : Constant
    Frame rate                  : 23.976 (23976/1000) FPS
    Color space                 : YUV
    Chroma subsampling          : 4:2:0
    Bit depth                   : 8 bits
    Scan type                   : Progressive
    Bits/(Pixel*Frame)          : 0.125
    Stream size                 : 4.47 GiB (88%)
    Language                    : English
    Default                     : Yes
    Forced                      : No
    Color range                 : Limited
    Color primaries             : BT.709
    Transfer characteristics    : BT.709
    Matrix coefficients         : BT.709

    Audio #1
    ID                          : 2
    Format                      : AC-3
    Format/Info                 : Audio Coding 3
    Format settings, Endianness : Big
    Codec ID                    : A_AC3
    Duration                    : 2 h 20 min
    Bit rate mode               : Constant
    Bit rate                    : 256 kb/s
    Channel(s)                  : 2 channels
    Channel positions           : Front: L R
    Sampling rate               : 48.0 kHz
    Frame rate                  : 31.250 FPS (1536 SPF)
    Bit depth                   : 16 bits
    Compression mode            : Lossy
    Stream size                 : 257 MiB (5%)
    Language                    : Spanish
    Service kind                : Complete Main
    Default                     : Yes
    Forced                      : No

    Audio #2
    ID                          : 3
    Format                      : AC-3
    Format/Info                 : Audio Coding 3
    Format settings, Endianness : Big
    Codec ID                    : A_AC3
    Duration                    : 2 h 20 min
    Bit rate mode               : Constant
    Bit rate                    : 384 kb/s
    Channel(s)                  : 6 channels
    Channel positions           : Front: L C R, Side: L R, LFE
    Sampling rate               : 48.0 kHz
    Frame rate                  : 31.250 FPS (1536 SPF)
    Bit depth                   : 16 bits
    Compression mode            : Lossy
    Stream size                 : 385 MiB (7%)
    Language                    : English
    Service kind                : Complete Main
    Default                     : No
    Forced                      : No

    Text #1
    ID                          : 4
    Format                      : UTF-8
    Codec ID                    : S_TEXT/UTF8
    Codec ID/Info               : UTF-8 Plain Text
    Duration                    : 2 h 12 min
    Bit rate                    : 20 b/s
    Count of elements           : 677
    Stream size                 : 19.6 KiB (0%)
    Language                    : Spanish
    Default                     : No
    Forced                      : No

    Text #2
    ID                          : 5
    Format                      : UTF-8
    Codec ID                    : S_TEXT/UTF8
    Codec ID/Info               : UTF-8 Plain Text
    Duration                    : 2 h 12 min
    Bit rate                    : 6 b/s
    Count of elements           : 193
    Stream size                 : 6.55 KiB (0%)
    Title                       : FORZADOS
    Language                    : Spanish
    Default                     : Yes
    Forced                      : No

    Text #3
    ID                          : 6
    Format                      : UTF-8
    Codec ID                    : S_TEXT/UTF8
    Codec ID/Info               : UTF-8 Plain Text
    Duration                    : 2 h 8 min
    Bit rate                    : 16 b/s
    Count of elements           : 750
    Stream size                 : 15.5 KiB (0%)
    Language                    : English
    Default                     : No
    Forced                      : No

    Menu
    00:00:00.000                : en:Chapter 01
    00:05:05.889                : en:Chapter 02
    00:09:06.712                : en:Chapter 03
    00:12:14.106                : en:Chapter 04
    00:18:21.014                : en:Chapter 05
    00:25:04.499                : en:Chapter 06
    00:30:17.394                : en:Chapter 07
    00:34:13.088                : en:Chapter 08
    00:37:46.341                : en:Chapter 09
    00:42:54.440                : en:Chapter 10
    00:49:31.795                : en:Chapter 11
    00:54:14.619                : en:Chapter 12
    00:58:49.809                : en:Chapter 13
    01:05:24.118                : en:Chapter 14
    01:10:18.370                : en:Chapter 15
    01:14:53.812                : en:Chapter 16
    01:18:59.181                : en:Chapter 17
    01:25:35.660                : en:Chapter 18
    01:29:37.359                : en:Chapter 19
    01:34:22.811                : en:Chapter 20
    01:39:27.698                : en:Chapter 21
    01:43:48.208                : en:Chapter 22
    01:48:45.380                : en:Chapter 23
    01:55:20.565                : en:Chapter 24
    01:58:04.687                : en:Chapter 25
    02:02:33.913                : en:Chapter 26
    02:05:54.780                : en:Chapter 27
    02:12:51.196                : en:Chapter 28

  • Peso: 5.10 GB

Sinopsis

César (Andy Serkis) jura que no comenzó la guerra. Pero él y su nación de simios genéticamente evolucionados se ven obligados a luchar en un conflicto a muerte contra los humanos que quedan en su mundo. César volverá a contar con sus fieles seguidores Rocket (Terry Notary), Maurice (Karin Konoval) y Luca (Michael Adamthwaite), así como con los nuevos aliados Simio Malo (Steve Zahn) y la pequeña humana Nova (Amiah Miller), junto a quienes se enfrentará contra el despiadado Coronel (Woody Harrelson), que lidera a la raza humana. Después de que los simios sufran bajas inimaginables, César luchará contra sus propios y oscuros instintos y comenzará su arriesgada misión para vengar a los de su especie. Este viaje finalmente le situará cara a cara contra su mayor enemigo. Así, César y el Coronel se enfrentan en una épica batalla que determinará el destino de ambas especies y el futuro del planeta.

Esta es la tercera entrega de la saga de El Planeta de los Simios, que vuelve a contar con Matt Reeves (Déjame entrar (Let Me In), Monstruoso) como director, quien además coescribe el guión junto a Mark Bomback (La serie Divergente: Insurgente, Lobezno inmortal), de nuevo inspirándose en la novela El planeta de los simios, escrita por Pierre Boulle.

Los actores protagonistas son Andy Serkis (Star Wars: El despertar de la Fuerza, Vengadores: La era de Ultrón), Judy Greer (Ant-Man, Jurassic World), Woody Harrelson (Ahora me ves 2, Los juegos del hambre: Sinsajo – Parte 2), Steve Zahn (Captain Fantastic, Dallas Buyers Club), Terry Notary (Warcraft. El origen, El Hobbit: La desolación de Smaug), Sara Canning (la serie Crónicas vampíricas, Creo que sí quiero), Karin Konoval (Mentiras del pasado, Bienvenidos a la casa de la muerte), Michael Adamthwaite (Warcraft: El origen, la serie Dirk Gently Agencia de Investigaciones Holísticas) y Amiah Miller (Nunca apague la luz).

Ficha técnica

  • Titulo original: War for the Planet of the Apes
  • Fecha de lanzamiento: 11-07-2017 (Canada, United States of America)
  • Director: Matt Reeves
  • Género: Ciencia ficción, Drama, Guerra
  • Puntuación: 3.8 5 votos
  • Duración:
    2h 20m

Video trailer de la película

Enlaces de descarga

Rip de Bluray

Descargar La guerra del planeta de los simios (2017) WEBDL 1080p Latino




Aportes de DPeliculasHDmega la pass es:dpeliculashdmega.org Aportes de CinemaniaHD la pass es:cinemaniahdd.com
Guardado en : Ciencia ficción , Drama , Guerra

Películas relacionadas

  • Bohemian Rhapsody (2018) [AMZ] WEB-DL 1080p Latino

    2018
    Bohemian Rhapsody (2018) [AMZ] WEB-DL 1080p Latino

    5.0 2h 14m 2018

    Bohemian Rhapsody es una rotunda y sonora celebración de Queen, de su música y de su extraordinario...

    Director: Jack Ravenscroft

    Género: Drama

    Actores: Tom Hollander

  • Bohemian Rhapsody (2018) WEB-DL 1080p Latino

    2018
    Bohemian Rhapsody (2018) WEB-DL 1080p Latino

    5.0 2h 14m 2018

    Bohemian Rhapsody es una rotunda y sonora celebración de Queen, de su música y de su extraordinario...

    Director: Jack Ravenscroft

    Género: Drama

    Actores: Tom Hollander

  • La buena esposa (2018) 1080p Latino

    2018
    La buena esposa (2018) 1080p Latino

    0.0 1h 40m 2018

    Descargar La buena esposa (2018) 1080p Latino, Mega, Google Drive, Torrent. Joan Castleman (Glenn Close)...

    Director: Björn Runge

    Género: Drama

    Actores: Twinnie Lee Moore

Comentarios 12
  • ernesto - 16 octubre, 2017

    buenisimoooo

  • movies - 12 octubre, 2017

    hola, pongo en descargar y me manda a un link que me pide darle click, le doy clik y me dice deve esperar 3o segundos y que le de clik a una publicidad, pero los 30 segundos nunca corren ya intente varias veces que pasa? saludos.

    • dpelis - 12 octubre, 2017

      cambie ip. instale extencion hola en chrome y cambie a bandera mexico y vuelva intentar

  • ricardoortiz10 - 12 octubre, 2017

    Para cuando Full HD amigo,!! feliz dia.

  • gnux - 10 octubre, 2017

    ya no sirven los enlaces de mega 🙁

    • dpelis - 10 octubre, 2017

      si sirvem

  • agfaf - 10 octubre, 2017

    ¿es la pelicula que tiene los subtitulos koreanos cortados?

    • dpelis - 10 octubre, 2017

      no subimos koreanos.

  • Leecher - 10 octubre, 2017

    Y el paste?

    • dpelis - 10 octubre, 2017

      perdon, se me habia olvidado.

      • Camilo Antonio - 10 octubre, 2017

        cuando suben el web dl latino de the emoji 2017

        • dpelis - 10 octubre, 2017

          publicada rip.