La gran aventura Lego (2014) Full 1080p Latino

330 vistas
1 estrella2 estrellas3 estrellas4 estrellas5 estrellas (Ninguna valoración todavía)
Cargando…

Información de La gran aventura Lego (2014) Full 1080p Latino

Datos de la película

  • Calidad: Full 1080p
  • Audio: Español Latino AC3 5.1 BLURAY - Ingles DTS 5.1 BLURAY
  • Subtitulos: Español Latino PGS - Ingles PGS
  • Resolución: 1920x1080p
  • Formato: MKV
  • Codec: H.264
  • Encoder: Dracarys
  • Mediainfo: Clic para Mostrar Datos Ver
  • Format                      : Matroska
    Format version              : Version 4
    File size                   : 4.07 GiB
    Duration                    : 1 h 40 min
    Overall bit rate            : 5 786 kb/s
    Movie name                  : CinemaniaHDD.net
    Encoded date                : UTC 2019-01-08 19:50:07
    Writing application         : mkvmerge v29.0.0 ('Like It Or Not') 64-bit
    Writing library             : libebml v1.3.6 + libmatroska v1.4.9 / Lavf58.20.100

    Video
    ID                          : 1
    Format                      : AVC
    Format/Info                 : Advanced Video Codec
    Format profile              : [email protected]
    Format settings             : CABAC / 4 Ref Frames
    Format settings, CABAC      : Yes
    Format settings, ReFrames   : 4 frames
    Codec ID                    : V_MPEG4/ISO/AVC
    Duration                    : 1 h 40 min
    Bit rate                    : 3 783 kb/s
    Width                       : 1 920 pixels
    Height                      : 1 080 pixels
    Display aspect ratio        : 16:9
    Frame rate mode             : Constant
    Frame rate                  : 23.976 (24000/1001) FPS
    Color space                 : YUV
    Chroma subsampling          : 4:2:0
    Bit depth                   : 8 bits
    Scan type                   : Progressive
    Bits/(Pixel*Frame)          : 0.076
    Stream size                 : 2.66 GiB (65%)
    Writing library             : x264 core 157 r2935 545de2f
    Encoding settings           : cabac=1 / ref=4 / deblock=1:0:0 / analyse=0x1:0x131 / me=esa / subme=10 / psy=1 / psy_rd=1.00:0.00 / mixed_ref=1 / me_range=24 / chroma_me=1 / trellis=2 / 8x8dct=0 / cqm=0 / deadzone=21,11 / fast_pskip=1 / chroma_qp_offset=-2 / threads=34 / lookahead_threads=5 / sliced_threads=0 / nr=0 / decimate=1 / interlaced=0 / bluray_compat=0 / constrained_intra=0 / bframes=8 / b_pyramid=2 / b_adapt=2 / b_bias=0 / direct=3 / weightb=1 / open_gop=0 / weightp=2 / keyint=240 / keyint_min=24 / scenecut=40 / intra_refresh=0 / rc_lookahead=60 / rc=crf / mbtree=1 / crf=20.0 / qcomp=0.60 / qpmin=0 / qpmax=69 / qpstep=4 / vbv_maxrate=20000 / vbv_bufsize=25000 / crf_max=0.0 / nal_hrd=none / filler=0 / ip_ratio=1.40 / aq=1:1.00
    Language                    : English
    Default                     : Yes
    Forced                      : No
    Color range                 : Limited
    Color primaries             : BT.709
    Transfer characteristics    : BT.709
    Matrix coefficients         : BT.709

    Audio #1
    ID                          : 2
    Format                      : AC-3
    Format/Info                 : Audio Coding 3
    Commercial name             : Dolby Digital
    Codec ID                    : A_AC3
    Duration                    : 1 h 40 min
    Bit rate mode               : Constant
    Bit rate                    : 448 kb/s
    Channel(s)                  : 6 channels
    Channel layout              : L R C LFE Ls Rs
    Sampling rate               : 48.0 kHz
    Frame rate                  : 31.250 FPS (1536 SPF)
    Bit depth                   : 16 bits
    Compression mode            : Lossy
    Stream size                 : 322 MiB (8%)
    Language                    : Spanish
    Service kind                : Complete Main
    Default                     : Yes
    Forced                      : Yes

    Audio #2
    ID                          : 3
    Format                      : DTS
    Format/Info                 : Digital Theater Systems
    Codec ID                    : A_DTS
    Duration                    : 1 h 40 min
    Bit rate mode               : Constant
    Bit rate                    : 1 509 kb/s
    Channel(s)                  : 6 channels
    Channel layout              : C L R Ls Rs LFE
    Sampling rate               : 48.0 kHz
    Frame rate                  : 93.750 FPS (512 SPF)
    Bit depth                   : 16 bits
    Compression mode            : Lossy
    Stream size                 : 1.06 GiB (26%)
    Language                    : English
    Default                     : No
    Forced                      : No

    Text #1
    ID                          : 4
    Format                      : PGS
    Muxing mode                 : zlib
    Codec ID                    : S_HDMV/PGS
    Codec ID/Info               : Picture based subtitle format used on BDs/HD-DVDs
    Duration                    : 1 h 39 min
    Bit rate                    : 51.4 kb/s
    Count of elements           : 4308
    Stream size                 : 36.7 MiB (1%)
    Language                    : English
    Default                     : No
    Forced                      : No

    Text #2
    ID                          : 5
    Format                      : PGS
    Muxing mode                 : zlib
    Codec ID                    : S_HDMV/PGS
    Codec ID/Info               : Picture based subtitle format used on BDs/HD-DVDs
    Duration                    : 1 h 39 min
    Bit rate                    : 45.6 kb/s
    Count of elements           : 3860
    Stream size                 : 32.6 MiB (1%)
    Language                    : Spanish
    Default                     : No
    Forced                      : No

    Text #3
    ID                          : 6
    Format                      : PGS
    Muxing mode                 : zlib
    Codec ID                    : S_HDMV/PGS
    Codec ID/Info               : Picture based subtitle format used on BDs/HD-DVDs
    Duration                    : 1 h 37 min
    Bit rate                    : 289 b/s
    Count of elements           : 34
    Stream size                 : 207 KiB (0%)
    Title                       : Forzados
    Language                    : Spanish
    Default                     : Yes
    Forced                      : Yes

    Menu
    00:00:00.000                : :Chapter 1
    00:09:44.042                : :Chapter 2
    00:18:18.389                : :Chapter 3
    00:29:50.747                : :Chapter 4
    00:38:48.034                : :Chapter 5
    00:48:45.047                : :Chapter 6
    00:57:49.424                : :Chapter 7
    01:06:05.253                : :Chapter 8
    01:16:24.205                : :Chapter 9
    01:25:56.151                : :Chapter 10
    01:32:57.322                : :Chapter 11

     

  • Peso: 4.07 GiB

Sinopsis

Película basada en los clásicos juguetes LEGO. Emmet, el protagonista de la película, trabaja como constructor en la ciudad Lego, pero sus conocimientos de construcción no van más allá de colocar las fichas atendiendo pormenorizadamente las instrucciones de edificación. Sin embargo, sin saber cómo ni por qué, Emmet es confundido con un “MasterBuilder” e introducido como cabecilla de una misión que tiene por objetivo evitar que un malvado acabe con la ciudad de bloques. Por suerte, los habitantes de tan atípico lugar no están solos. Los mismísimos Superman y Batman han tomado la forma de muñecos Lego para tomar parte de esta gran aventura.

Ficha técnica

Video trailer de la película

Enlaces de descarga

Rip de Bluray

Descargar La gran aventura Lego (2014) Full 1080p Latino




Aportes de DPeliculasHDmega la pass es:dpeliculashdmega.org Aportes de CinemaniaHD la pass es:cinemaniahdd.com

Películas relacionadas

  • Liga de la Justicia (2017) HD 1080p Latino

    2017
    Liga de la Justicia (2017) HD 1080p Latino

    5.0 2h 1m 2017

    Descargar Liga de la Justicia (2017) HD 1080p Latino, Mega, Google Drive, Torrent. Motivado por la fe...

    Director: Zack Snyder

    Género: Acción

    Actores: Sergi Constance

  • Escuadrón suicida (2016) Extended 1080p Latino

    2016
    Escuadrón suicida (2016) Extended 1080p Latino

    5.0 2h 3m 2016

    Descargar Escuadrón suicida (2016) Extended 1080p Latino, Mega, Google Drive, Torrent. Mientras el gobierno...

    Director: Shane B. Scott

    Género: Acción

    Actores: William Hainsworth

  • Escuadrón suicida (2016) Extended Full 1080p Latino

    2016
    Escuadrón suicida (2016) Extended Full 1080p Latino

    5.0 2 h 14 min 2016

    Descargar Escuadrón suicida (2016) Extended 1080p Latino, Mega, Google Drive, Torrent. Mientras el gobierno...

    Director: Shane B. Scott

    Género: Acción

    Actores: William Hainsworth

Comentarios 0