×

¿Problemas para descargar con Mozilla, EDGE? Deshabilita la opción "Abrir vinculos en una pestaña nueva" tal como lo muestra ésta imagen.

La Galería De Los Corazones Rotos (2020) HD 1080p Latino

253 vistas

Información de La Galería De Los Corazones Rotos (2020) HD 1080p Latino

Datos de la película

  • Calidad: 1080p
  • Audio: Se especifica abajo de la Sinopsis
  • Subtitulos: Español Latino SRT - Ingles SRT
  • Resolución: 1920x960p
  • Formato: MKV
  • Codec: H.264
  • Encoder: Melkor
  • Mediainfo: Clic para Mostrar Datos Ver
  • La Galeria De Los Corazones Rotos (2020) HD 1080p Latino.mkv
    Format                      : Matroska
    Format version              : Version 4
    File size                   : 3.47 GiB
    Duration                    : 1 h 48 min
    Overall bit rate            : 4 557 kb/s
    Movie name                  : The Broken Hearts Gallery (2020) CinemaniaHDD.Net
    Encoded date                : UTC 2020-12-03 06:14:27
    Writing application         : mkvmerge v51.0.0 ('I Wish') 64-bit
    Writing library             : libebml v1.4.0 + libmatroska v1.6.2
    Attachments                 : CINEMANIAHD.png

    Video
    ID                          : 1
    Format                      : AVC
    Format/Info                 : Advanced Video Codec
    Format profile              : High@L4.1
    Format settings             : CABAC / 4 Ref Frames
    Format settings, CABAC      : Yes
    Format settings, Reference  : 4 frames
    Codec ID                    : V_MPEG4/ISO/AVC
    Duration                    : 1 h 48 min
    Bit rate                    : 3 500 kb/s
    Width                       : 1 920 pixels
    Height                      : 960 pixels
    Display aspect ratio        : 2.000
    Frame rate mode             : Constant
    Frame rate                  : 23.976 (24000/1001) FPS
    Color space                 : YUV
    Chroma subsampling          : 4:2:0
    Bit depth                   : 8 bits
    Scan type                   : Progressive
    Bits/(Pixel*Frame)          : 0.079
    Stream size                 : 2.64 GiB (76%)
    Title                       : HD1080p [CinemaniaHDD]
    Writing library             : x264 core 157 r2935 545de2f
    Encoding settings           : cabac=1 / ref=4 / deblock=1:-1:-1 / analyse=0x3:0x133 / me=umh / subme=9 / psy=1 / psy_rd=1.00:0.15 / mixed_ref=1 / me_range=16 / chroma_me=1 / trellis=2 / 8x8dct=1 / cqm=0 / deadzone=21,11 / fast_pskip=1 / chroma_qp_offset=-3 / threads=24 / lookahead_threads=2 / sliced_threads=0 / nr=0 / decimate=1 / interlaced=0 / bluray_compat=0 / constrained_intra=0 / bframes=3 / b_pyramid=2 / b_adapt=2 / b_bias=0 / direct=3 / weightb=1 / open_gop=0 / weightp=2 / keyint=240 / keyint_min=24 / scenecut=40 / intra_refresh=0 / rc_lookahead=60 / rc=abr / mbtree=1 / bitrate=3500 / ratetol=1.0 / qcomp=0.60 / qpmin=0 / qpmax=69 / qpstep=4 / vbv_maxrate=62500 / vbv_bufsize=78125 / nal_hrd=none / filler=0 / ip_ratio=1.40 / aq=1:1.00
    Default                     : Yes
    Forced                      : Yes
    Color range                 : Limited
    Color primaries             : BT.709
    Transfer characteristics    : BT.709
    Matrix coefficients         : BT.709

    Audio #1
    ID                          : 2
    Format                      : AC-3
    Format/Info                 : Audio Coding 3
    Commercial name             : Dolby Digital
    Codec ID                    : A_AC3
    Duration                    : 1 h 48 min
    Bit rate mode               : Constant
    Bit rate                    : 640 kb/s
    Channel(s)                  : 6 channels
    Channel layout              : L R C LFE Ls Rs
    Sampling rate               : 48.0 kHz
    Frame rate                  : 31.250 FPS (1536 SPF)
    Compression mode            : Lossy
    Delay relative to video     : -5 ms
    Stream size                 : 498 MiB (14%)
    Title                       : Español Latino [CinemaniaHDD]
    Language                    : Spanish
    Service kind                : Complete Main
    Default                     : Yes
    Forced                      : Yes

    Audio #2
    ID                          : 3
    Format                      : AC-3
    Format/Info                 : Audio Coding 3
    Commercial name             : Dolby Digital
    Codec ID                    : A_AC3
    Duration                    : 1 h 48 min
    Bit rate mode               : Constant
    Bit rate                    : 448 kb/s
    Channel(s)                  : 6 channels
    Channel layout              : L R C LFE Ls Rs
    Sampling rate               : 48.0 kHz
    Frame rate                  : 31.250 FPS (1536 SPF)
    Compression mode            : Lossy
    Delay relative to video     : -5 ms
    Stream size                 : 349 MiB (10%)
    Title                       : Ingles [CinemaniaHDD]
    Language                    : English
    Service kind                : Complete Main
    Default                     : No
    Forced                      : No

    Text #1
    ID                          : 4
    Format                      : UTF-8
    Codec ID                    : S_TEXT/UTF8
    Codec ID/Info               : UTF-8 Plain Text
    Duration                    : 1 h 42 min
    Bit rate                    : 1 b/s
    Count of elements           : 21
    Stream size                 : 960 Bytes (0%)
    Title                       : Forzados-SRT [CinemaniaHDD]
    Language                    : Spanish
    Default                     : Yes
    Forced                      : No

    Text #2
    ID                          : 5
    Format                      : UTF-8
    Codec ID                    : S_TEXT/UTF8
    Codec ID/Info               : UTF-8 Plain Text
    Duration                    : 1 h 45 min
    Bit rate                    : 92 b/s
    Count of elements           : 1723
    Stream size                 : 71.7 KiB (0%)
    Title                       : Español-SRT [CinemaniaHDD]
    Language                    : Spanish
    Default                     : No
    Forced                      : No

    Text #3
    ID                          : 6
    Format                      : UTF-8
    Codec ID                    : S_TEXT/UTF8
    Codec ID/Info               : UTF-8 Plain Text
    Duration                    : 1 h 44 min
    Bit rate                    : 83 b/s
    Count of elements           : 1641
    Stream size                 : 63.9 KiB (0%)
    Title                       : Ingles-SRT [CinemaniaHDD]
    Language                    : English
    Default                     : No
    Forced                      : No

    Menu
    00:00:00.000                : en:Chapter 01
    00:06:39.524                : en:Chapter 02
    00:12:41.552                : en:Chapter 03
    00:19:11.525                : en:Chapter 04
    00:28:20.699                : en:Chapter 05
    00:39:55.810                : en:Chapter 06
    00:46:55.395                : en:Chapter 07
    00:52:40.991                : en:Chapter 08
    01:04:15.268                : en:Chapter 09
    01:09:45.764                : en:Chapter 10
    01:15:21.600                : en:Chapter 11
    01:19:39.941                : en:Chapter 12
    01:25:23.243                : en:Chapter 13
    01:30:33.845                : en:Chapter 14
    01:34:59.985                : en:Chapter 15
    01:37:16.247                : en:Chapter 16

  • Peso: 3.47 GiB

Sinopsis

Descargar La Galería De Los Corazones Rotos (2020) HD 1080p Latino. ¿Qué pasaría si conservaras un souvenir de cada relación en la que has estado? «The Broken Hearts Gallery» sigue a Lucy, una veinteañera que trabaja en una galería de arte de Nueva York y que es una acumuladora emocional.

Español Latino AC3 5.1 WebDL – Ingles AC3 5.1 Bluray

Ficha técnica

Video trailer de la película

Enlaces de descarga

Rip de Bluray

Descargar La Galería De Los Corazones Rotos (2020) HD 1080p Latino




Aportes de DPeliculasHDmega la pass es:dpeliculashdmega.org Aportes de CinemaniaHD la pass es:cinemaniahdd.com
Guardado en : Comedia , HD 1080p , Romance

Películas relacionadas

descargar La Galería De Los Corazones Rotos (2020) HD 1080p Latino 1080p 1080p gratis, La Galería De Los Corazones Rotos (2020) HD 1080p Latino 1080p mega 1 link, La Galería De Los Corazones Rotos (2020) HD 1080p Latino 1080p pelicula completa, descargar La Galería De Los Corazones Rotos (2020) HD 1080p Latino 1080p gratis en mega.

La Galería De Los Corazones Rotos (2020) HD 1080p Latino pelicula full hd, La Galería De Los Corazones Rotos (2020) HD 1080p Latino mega latino, La Galería De Los Corazones Rotos (2020) HD 1080p Latino 4k latino, La Galería De Los Corazones Rotos (2020) HD 1080p Latino pelicula completa, La Galería De Los Corazones Rotos (2020) HD 1080p Latino descargar gratis, descargar La Galería De Los Corazones Rotos (2020) HD 1080p Latino pelicula latino, La Galería De Los Corazones Rotos (2020) HD 1080p Latino 1 link mega, La Galería De Los Corazones Rotos (2020) HD 1080p Latino 1 link google drive, La Galería De Los Corazones Rotos (2020) HD 1080p Latino hd 1080p latino.
Comentarios 0