×

¿Problemas para descargar con Mozilla, EDGE? Deshabilita la opción "Abrir vinculos en una pestaña nueva" tal como lo muestra ésta imagen.

La Furia De La Montaña (2021) HD 1080p Latino

649 vistas

Información de La Furia De La Montaña (2021) HD 1080p Latino

Datos de la película

  • Calidad: 1080p
  • Audio: Se especifica abajo de la Sinopsis
  • Subtitulos: Español Latino SRT- FORZADOS SRT
  • Resolución: 1920x964p
  • Formato: MKV
  • Codec: H.264
  • Encoder: Melkor
  • Mediainfo: Clic para Mostrar Datos Ver
  • La Furia De La Montaña (2021) HD 1080p Latino.mkv
    Format                      : Matroska
    Format version              : Version 4
    File size                   : 3.53 GiB
    Duration                    : 1 h 54 min
    Overall bit rate            : 4 409 kb/s
    Movie name                  : Cloudy Mountain (2021) CinemaniaHDD.Net
    Encoded date                : UTC 2022-07-24 06:13:38
    Writing application         : mkvmerge v56.1.0 ('My Friend') 64-bit
    Writing library             : libebml v1.4.2 + libmatroska v1.6.4
    Attachments                 : CINEMANIAHD.png

    Video
    ID                          : 1
    Format                      : AVC
    Format/Info                 : Advanced Video Codec
    Format profile              : High@L4.1
    Format settings             : CABAC / 4 Ref Frames
    Format settings, CABAC      : Yes
    Format settings, Reference  : 4 frames
    Codec ID                    : V_MPEG4/ISO/AVC
    Duration                    : 1 h 54 min
    Bit rate                    : 3 500 kb/s
    Width                       : 1 920 pixels
    Height                      : 964 pixels
    Display aspect ratio        : 1.992
    Frame rate mode             : Constant
    Frame rate                  : 24.000 FPS
    Color space                 : YUV
    Chroma subsampling          : 4:2:0
    Bit depth                   : 8 bits
    Scan type                   : Progressive
    Bits/(Pixel*Frame)          : 0.079
    Stream size                 : 2.81 GiB (80%)
    Title                       : HD1080p [CinemaniaHDD]
    Writing library             : x264 core 163 r3059 b684ebe0
    Encoding settings           : cabac=1 / ref=4 / deblock=1:-1:-1 / analyse=0x3:0x133 / me=umh / subme=9 / psy=1 / psy_rd=1.00:0.15 / mixed_ref=1 / me_range=16 / chroma_me=1 / trellis=2 / 8x8dct=1 / cqm=0 / deadzone=21,11 / fast_pskip=1 / chroma_qp_offset=-3 / threads=24 / lookahead_threads=2 / sliced_threads=0 / nr=0 / decimate=1 / interlaced=0 / bluray_compat=0 / constrained_intra=0 / bframes=3 / b_pyramid=2 / b_adapt=2 / b_bias=0 / direct=3 / weightb=1 / open_gop=0 / weightp=2 / keyint=240 / keyint_min=24 / scenecut=40 / intra_refresh=0 / rc_lookahead=60 / rc=abr / mbtree=1 / bitrate=3500 / ratetol=1.0 / qcomp=0.60 / qpmin=0 / qpmax=69 / qpstep=4 / vbv_maxrate=62500 / vbv_bufsize=78125 / nal_hrd=none / filler=0 / ip_ratio=1.40 / aq=1:1.00
    Default                     : Yes
    Forced                      : Yes
    Color range                 : Limited
    Color primaries             : BT.709
    Transfer characteristics    : BT.709
    Matrix coefficients         : BT.709

    Audio #1
    ID                          : 2
    Format                      : AC-3
    Format/Info                 : Audio Coding 3
    Commercial name             : Dolby Digital
    Codec ID                    : A_AC3
    Duration                    : 1 h 54 min
    Bit rate mode               : Constant
    Bit rate                    : 448 kb/s
    Channel(s)                  : 6 channels
    Channel layout              : L R C LFE Ls Rs
    Sampling rate               : 48.0 kHz
    Frame rate                  : 31.250 FPS (1536 SPF)
    Compression mode            : Lossy
    Delay relative to video     : -5 ms
    Stream size                 : 368 MiB (10%)
    Title                       : Español Latino [CinemaniaHDD]
    Language                    : Spanish
    Service kind                : Complete Main
    Default                     : Yes
    Forced                      : Yes

    Audio #2
    ID                          : 3
    Format                      : AC-3
    Format/Info                 : Audio Coding 3
    Commercial name             : Dolby Digital
    Codec ID                    : A_AC3
    Duration                    : 1 h 54 min
    Bit rate mode               : Constant
    Bit rate                    : 448 kb/s
    Channel(s)                  : 6 channels
    Channel layout              : L R C LFE Ls Rs
    Sampling rate               : 48.0 kHz
    Frame rate                  : 31.250 FPS (1536 SPF)
    Compression mode            : Lossy
    Delay relative to video     : -5 ms
    Stream size                 : 368 MiB (10%)
    Title                       : Chino [CinemaniaHDD]
    Language                    : Chinese
    Service kind                : Complete Main
    Default                     : No
    Forced                      : No

    Text #1
    ID                          : 4
    Format                      : UTF-8
    Codec ID                    : S_TEXT/UTF8
    Codec ID/Info               : UTF-8 Plain Text
    Duration                    : 1 h 45 min
    Bit rate                    : 0 b/s
    Count of elements           : 6
    Stream size                 : 344 Bytes (0%)
    Title                       : Forzados-SRT [CinemaniaHDD]
    Language                    : Spanish
    Default                     : Yes
    Forced                      : Yes

    Text #2
    ID                          : 5
    Format                      : UTF-8
    Codec ID                    : S_TEXT/UTF8
    Codec ID/Info               : UTF-8 Plain Text
    Duration                    : 1 h 45 min
    Bit rate                    : 44 b/s
    Count of elements           : 1601
    Stream size                 : 34.8 KiB (0%)
    Title                       : Español-SRT [CinemaniaHDD]
    Language                    : Spanish
    Default                     : No
    Forced                      : No

    Menu
    00:00:00.000                : Chapter 01
    00:08:13.500                : Chapter 02
    00:15:02.916                : Chapter 03
    00:26:11.791                : Chapter 04
    00:39:31.541                : Chapter 05
    00:46:21.791                : Chapter 06
    00:51:56.000                : Chapter 07
    01:03:59.958                : Chapter 08
    01:13:17.125                : Chapter 09
    01:26:38.208                : Chapter 10
    01:36:10.583                : Chapter 11
    01:42:57.291                : Chapter 12

  • Peso: 3.53 GiB

Sinopsis

Descargar La Furia De La Montaña (2021) HD 1080p Latino. La inauguración del nuevo túnel, que tardó diez años en construirse, coincidió con una serie de graves cataclismos. La vida de 160.000 personas depende de las acciones de dos personas, un padre y un hijo.

Español Latino AC3 5.1 Web – Chino AC3 5.1 BD

Ficha técnica

  • Titulo original: 峰爆
  • Fecha de lanzamiento: 11-09-2021 (China)
  • Director: Li Jun
  • Género: Acción, HD 1080p

Video trailer de la película

Enlaces de descarga

Rip de Bluray

Descargar La Furia De La Montaña (2021) HD 1080p Latino




Aportes de DPeliculasHDmega la pass es:dpeliculashdmega.org Aportes de CinemaniaHD la pass es:cinemaniahdd.com
Guardado en : Acción , HD 1080p

Películas relacionadas

descargar La Furia De La Montaña (2021) HD 1080p Latino 1080p 1080p gratis, La Furia De La Montaña (2021) HD 1080p Latino 1080p mega 1 link, La Furia De La Montaña (2021) HD 1080p Latino 1080p pelicula completa, descargar La Furia De La Montaña (2021) HD 1080p Latino 1080p gratis en mega.

La Furia De La Montaña (2021) HD 1080p Latino pelicula full hd, La Furia De La Montaña (2021) HD 1080p Latino mega latino, La Furia De La Montaña (2021) HD 1080p Latino 4k latino, La Furia De La Montaña (2021) HD 1080p Latino pelicula completa, La Furia De La Montaña (2021) HD 1080p Latino descargar gratis, descargar La Furia De La Montaña (2021) HD 1080p Latino pelicula latino, La Furia De La Montaña (2021) HD 1080p Latino 1 link mega, La Furia De La Montaña (2021) HD 1080p Latino 1 link google drive, La Furia De La Montaña (2021) HD 1080p Latino hd 1080p latino.
Comentarios 0