×

¿Problemas para descargar con Mozilla, EDGE? Deshabilita la opción "Abrir vinculos en una pestaña nueva" tal como lo muestra ésta imagen.

La Fuerza De La Naturaleza (2020) EXTENDED REMUX 1080p Latino

291 vistas

Información de La Fuerza De La Naturaleza (2020) EXTENDED REMUX 1080p Latino

Datos de la película

  • Calidad: Full 1080p
  • Audio: Se especifica abajo de la Sinopsis
  • Subtitulos: Español Latino SRT- FORZADOS SRT
  • Resolución: 1920x1080p
  • Formato: MKV
  • Codec: H.264
  • Encoder: Melkor
  • Mediainfo: Clic para Mostrar Datos Ver
  • La Fuerza De La Naturaleza (2020) EXTENDED REMUX 1080p Latino.mkv
    Format                      : Matroska
    Format version              : Version 4
    File size                   : 24.5 GiB
    Duration                    : 1 h 39 min
    Overall bit rate mode       : Variable
    Overall bit rate            : 35.2 Mb/s
    Movie name                  : Force Of Nature (2020) CinemaniaHDD.Net
    Encoded date                : UTC 2021-04-02 20:30:05
    Writing application         : mkvmerge v51.0.0 ('I Wish') 64-bit
    Writing library             : libebml v1.4.0 + libmatroska v1.6.2
    Attachments                 : CINEMANIAHD.png

    Video
    ID                          : 1
    ID in the original source m : 4113 (0x1011)
    Format                      : AVC
    Format/Info                 : Advanced Video Codec
    Format profile              : High@L4.1
    Format settings             : CABAC / 3 Ref Frames
    Format settings, CABAC      : Yes
    Format settings, Reference  : 3 frames
    Codec ID                    : V_MPEG4/ISO/AVC
    Duration                    : 1 h 39 min
    Bit rate mode               : Variable
    Bit rate                    : 30.0 Mb/s
    Maximum bit rate            : 35.0 Mb/s
    Width                       : 1 920 pixels
    Height                      : 1 080 pixels
    Display aspect ratio        : 16:9
    Frame rate mode             : Constant
    Frame rate                  : 23.976 (24000/1001) FPS
    Color space                 : YUV
    Chroma subsampling          : 4:2:0
    Bit depth                   : 8 bits
    Scan type                   : Progressive
    Bits/(Pixel*Frame)          : 0.603
    Stream size                 : 20.8 GiB (85%)
    Title                       : REMUX HD1080p [CinemaniaHDD]
    Language                    : English
    Default                     : Yes
    Forced                      : No
    Original source medium      : Blu-ray

    Audio #1
    ID                          : 2
    Format                      : E-AC-3
    Format/Info                 : Enhanced AC-3
    Commercial name             : Dolby Digital Plus
    Codec ID                    : A_EAC3
    Duration                    : 1 h 39 min
    Bit rate mode               : Constant
    Bit rate                    : 640 kb/s
    Channel(s)                  : 6 channels
    Channel layout              : L R C LFE Ls Rs
    Sampling rate               : 48.0 kHz
    Frame rate                  : 31.250 FPS (1536 SPF)
    Compression mode            : Lossy
    Delay relative to video     : 26 ms
    Stream size                 : 456 MiB (2%)
    Title                       : Español Latino EAC3 [CinemaniaHDD]
    Language                    : Spanish
    Service kind                : Complete Main
    Default                     : Yes
    Forced                      : No

    Audio #2
    ID                          : 3
    ID in the original source m : 4353 (0x1101)
    Format                      : DTS XLL
    Format/Info                 : Digital Theater Systems
    Commercial name             : DTS-HD Master Audio
    Codec ID                    : A_DTS
    Duration                    : 1 h 39 min
    Bit rate mode               : Variable
    Bit rate                    : 3 963 kb/s
    Channel(s)                  : 6 channels
    Channel layout              : C L R Ls Rs LFE
    Sampling rate               : 48.0 kHz
    Frame rate                  : 93.750 FPS (512 SPF)
    Bit depth                   : 24 bits
    Compression mode            : Lossless
    Stream size                 : 2.76 GiB (11%)
    Title                       : Ingles [CinemaniaHDD]
    Language                    : English
    Default                     : No
    Forced                      : No
    Original source medium      : Blu-ray

    Audio #3
    ID                          : 4
    Format                      : AC-3
    Format/Info                 : Audio Coding 3
    Commercial name             : Dolby Digital
    Codec ID                    : A_AC3
    Duration                    : 1 h 39 min
    Bit rate mode               : Constant
    Bit rate                    : 640 kb/s
    Channel(s)                  : 6 channels
    Channel layout              : L R C LFE Ls Rs
    Sampling rate               : 48.0 kHz
    Frame rate                  : 31.250 FPS (1536 SPF)
    Compression mode            : Lossy
    Stream size                 : 456 MiB (2%)
    Title                       : Español Latino AC3 [CinemaniaHDD]
    Language                    : Spanish
    Service kind                : Complete Main
    Default                     : No
    Forced                      : No

    Text #1
    ID                          : 5
    Format                      : UTF-8
    Codec ID                    : S_TEXT/UTF8
    Codec ID/Info               : UTF-8 Plain Text
    Duration                    : 1 h 39 min
    Bit rate                    : 0 b/s
    Count of elements           : 4
    Stream size                 : 127 Bytes (0%)
    Title                       : Forzados-SRT [CinemaniaHDD]
    Language                    : Spanish
    Default                     : Yes
    Forced                      : No

    Text #2
    ID                          : 6
    Format                      : UTF-8
    Codec ID                    : S_TEXT/UTF8
    Codec ID/Info               : UTF-8 Plain Text
    Duration                    : 1 h 39 min
    Bit rate                    : 43 b/s
    Count of elements           : 1194
    Stream size                 : 31.6 KiB (0%)
    Title                       : Español-SRT [CinemaniaHDD]
    Language                    : Spanish
    Default                     : No
    Forced                      : No

    Text #3
    ID                          : 7
    Format                      : UTF-8
    Codec ID                    : S_TEXT/UTF8
    Codec ID/Info               : UTF-8 Plain Text
    Duration                    : 1 h 37 min
    Bit rate                    : 62 b/s
    Count of elements           : 1635
    Stream size                 : 44.8 KiB (0%)
    Title                       : Ingles-SRT [CinemaniaHDD]
    Language                    : English
    Default                     : No
    Forced                      : No

    Menu
    00:00:00.000                : en:Chapter 01
    00:08:57.828                : en:Chapter 02
    00:15:35.684                : en:Chapter 03
    00:20:44.076                : en:Chapter 04
    00:29:52.874                : en:Chapter 05
    00:39:56.018                : en:Chapter 06
    00:49:15.786                : en:Chapter 07
    00:57:55.638                : en:Chapter 08
    01:07:20.202                : en:Chapter 09
    01:15:46.959                : en:Chapter 10
    01:26:02.740                : en:Chapter 11
    01:33:14.213                : en:Chapter 12

  • Peso: 24.5 GiB

Sinopsis

Descargar La Fuerza De La Naturaleza (2020) EXTENDED REMUX 1080p Latino. Una banda de ladrones planea un atraco durante un huracán y se encuentra con problemas cuando un policía en desgracia intenta obligar a todos en el edificio a evacuar.

Español Latino EAC3 & AC3 5.1 WebDL – Ingles DTS-HD 5.1 Bluray

Ficha técnica

  • Titulo original: Force of Nature
  • Fecha de lanzamiento: 02-07-2020 (Puerto Rico, United States of America)
  • Director: Michael Polish
  • Género: Acción, Crimen, Remux

Video trailer de la película

Enlaces de descarga

Rip de Bluray

Descargar La Fuerza De La Naturaleza (2020) EXTENDED REMUX 1080p Latino




Aportes de DPeliculasHDmega la pass es:dpeliculashdmega.org Aportes de CinemaniaHD la pass es:cinemaniahdd.com
Guardado en : Acción , Crimen , Remux

Películas relacionadas

  • Mi amigo el dragón (2016) REMUX 1080p Latino

    Mi amigo el dragón (2016) REMUX 1080p Latino

    2016
    Mi amigo el dragón (2016) REMUX 1080p Latino

    1h 43m 2016

    Descargar Mi amigo el dragón (2016) REMUX 1080p Latino. Durante años el Sr. Meacham, un viejo tallador...

    Director: Joe Nolan

    Género: Aventura

    Actores: William J. Rawbone

  • El discurso del Rey (2010) REMUX 1080p Latino

    El discurso del Rey (2010) REMUX 1080p Latino

    2010
    El discurso del Rey (2010) REMUX 1080p Latino

    1h 58m 2010

    Descargar El discurso del Rey (2010) REMUX 1080p Latino. El duque de York se convirtió en rey de Gran...

    Director: Tom Hooper

    Género: Drama

    Actores: Tony Earnshaw

  • Lucy (2014) REMUX 4K HDR Latino – CMHDD

    Lucy (2014) REMUX 4K HDR Latino – CMHDD

    2014
    Lucy (2014) REMUX 4K HDR Latino – CMHDD

    1h 30m 2014

    Lucy, una joven obligada a ejercer de mula de una nueva y potente droga, adquiere de repente enormes...

    Director: Luc Besson

    Género: Acción

    Actores: Wolfgang Pissors

descargar La Fuerza De La Naturaleza (2020) EXTENDED REMUX 1080p Latino Full 1080p 1080p gratis, La Fuerza De La Naturaleza (2020) EXTENDED REMUX 1080p Latino Full 1080p mega 1 link, La Fuerza De La Naturaleza (2020) EXTENDED REMUX 1080p Latino Full 1080p pelicula completa, descargar La Fuerza De La Naturaleza (2020) EXTENDED REMUX 1080p Latino Full 1080p gratis en mega.

La Fuerza De La Naturaleza (2020) EXTENDED REMUX 1080p Latino pelicula full hd, La Fuerza De La Naturaleza (2020) EXTENDED REMUX 1080p Latino mega latino, La Fuerza De La Naturaleza (2020) EXTENDED REMUX 1080p Latino 4k latino, La Fuerza De La Naturaleza (2020) EXTENDED REMUX 1080p Latino pelicula completa, La Fuerza De La Naturaleza (2020) EXTENDED REMUX 1080p Latino descargar gratis, descargar La Fuerza De La Naturaleza (2020) EXTENDED REMUX 1080p Latino pelicula latino, La Fuerza De La Naturaleza (2020) EXTENDED REMUX 1080p Latino 1 link mega, La Fuerza De La Naturaleza (2020) EXTENDED REMUX 1080p Latino 1 link google drive, La Fuerza De La Naturaleza (2020) EXTENDED REMUX 1080p Latino hd 1080p latino.
Comentarios 0