×

¿Problemas para descargar con Mozilla, EDGE? Deshabilita la opción "Abrir vinculos en una pestaña nueva" tal como lo muestra ésta imagen.

La Fortuna (2021) Primera Temporada HD 1080p Latino

576 vistas

Información de La Fortuna (2021) Primera Temporada HD 1080p Latino

Datos de la película

  • Calidad: 1080p
  • Audio: Se especifica abajo de la Sinopsis
  • Subtitulos: Español España SRT - Ingles SRT
  • Resolución: 1920x1080
  • Formato: MKV
  • Codec: H.264
  • Encoder: cinemaniahdd
  • Mediainfo: Clic para Mostrar Datos Ver
  • La Fortuna T01E01 HD 1080p Latino [CNMNHDD].mkv
    Format                      : Matroska
    Format version              : Version 4
    File size                   : 5.38 GiB
    Duration                    : 50 min 2 s
    Overall bit rate            : 15.4 Mb/s
    Movie name                  : La Fortuna T01E01 - CinemaniaHDD.Net
    Encoded date                : UTC 2022-02-22 00:39:45
    Writing application         : mkvmerge v56.1.0 ('My Friend') 64-bit
    Writing library             : libebml v1.4.2 + libmatroska v1.6.4

    Video
    ID                          : 1
    Format                      : AVC
    Format/Info                 : Advanced Video Codec
    Format profile              : High@L4.1
    Format settings             : CABAC / 4 Ref Frames
    Format settings, CABAC      : Yes
    Format settings, Reference  : 4 frames
    Codec ID                    : V_MPEG4/ISO/AVC
    Duration                    : 50 min 2 s
    Bit rate                    : 13.5 Mb/s
    Width                       : 1 920 pixels
    Height                      : 1 080 pixels
    Display aspect ratio        : 16:9
    Frame rate mode             : Constant
    Frame rate                  : 25.000 FPS
    Color space                 : YUV
    Chroma subsampling          : 4:2:0
    Bit depth                   : 8 bits
    Scan type                   : Progressive
    Bits/(Pixel*Frame)          : 0.260
    Stream size                 : 4.71 GiB (88%)
    Title                       : CinemaniaHDD
    Writing library             : x264 core 164 r3079+60M cd8c3e1 devel [(8 & 10)-bit@all X86_64]
    Encoding settings           : cabac=1 / ref=4 / deblock=1:-3:-3 / analyse=0x3:0x133 / me=umh / subme=11 / psy=1 / fade_compensate=0.00 / psy_rd=1.00:0.00 / mixed_ref=1 / me_range=32 / chroma_me=1 / trellis=2 / 8x8dct=1 / cqm=0 / deadzone=21,11 / fast_pskip=1 / chroma_qp_offset=-2 / threads=32 / lookahead_threads=8 / sliced_threads=0 / nr=0 / decimate=1 / interlaced=0 / bluray_compat=0 / constrained_intra=0 / fgo=0 / bframes=10 / b_pyramid=2 / b_adapt=2 / b_bias=0 / direct=3 / weightb=1 / open_gop=0 / weightp=2 / keyint=250 / keyint_min=25 / scenecut=40 / intra_refresh=0 / rc=crf / mbtree=0 / crf=15.0000 / qcomp=0.65 / qpmin=0:0:0 / qpmax=69:69:69 / qpstep=4 / ip_ratio=1.25 / pb_ratio=1.20 / aq=1:0.60 / aq-sensitivity=10.00 / aq-factor=1.00:1.00:1.00 / aq2=0 / aq3=0
    Language                    : Spanish
    Default                     : Yes
    Forced                      : No

    Audio #1
    ID                          : 2
    Format                      : AC-3
    Format/Info                 : Audio Coding 3
    Commercial name             : Dolby Digital
    Codec ID                    : A_AC3
    Duration                    : 50 min 2 s
    Bit rate mode               : Constant
    Bit rate                    : 384 kb/s
    Channel(s)                  : 2 channels
    Channel layout              : L R
    Sampling rate               : 48.0 kHz
    Frame rate                  : 31.250 FPS (1536 SPF)
    Compression mode            : Lossy
    Stream size                 : 137 MiB (2%)
    Title                       : Español latino [CinemaniaHDD]
    Language                    : Spanish
    Service kind                : Complete Main
    Default                     : Yes
    Forced                      : No

    Audio #2
    ID                          : 3
    Format                      : DTS
    Format/Info                 : Digital Theater Systems
    Codec ID                    : A_DTS
    Duration                    : 50 min 2 s
    Bit rate mode               : Constant
    Bit rate                    : 1 509 kb/s
    Channel(s)                  : 6 channels
    Channel layout              : C L R Ls Rs LFE
    Sampling rate               : 48.0 kHz
    Frame rate                  : 93.750 FPS (512 SPF)
    Bit depth                   : 16 bits
    Compression mode            : Lossy
    Stream size                 : 540 MiB (10%)
    Title                       : Castellano [CinemaniaHDD]
    Language                    : Spanish
    Default                     : No
    Forced                      : No

    Text #1
    ID                          : 4
    Format                      : PGS
    Muxing mode                 : zlib
    Codec ID                    : S_HDMV/PGS
    Codec ID/Info               : Picture based subtitle format used on BDs/HD-DVDs
    Duration                    : 47 min 35 s
    Bit rate                    : 19.1 kb/s
    Count of elements           : 596
    Stream size                 : 6.49 MiB (0%)
    Title                       : Forzados (Castellanos) [CinemaniaHDD]
    Language                    : Spanish
    Default                     : Yes
    Forced                      : Yes

    Text #2
    ID                          : 5
    Format                      : PGS
    Muxing mode                 : zlib
    Codec ID                    : S_HDMV/PGS
    Codec ID/Info               : Picture based subtitle format used on BDs/HD-DVDs
    Duration                    : 48 min 8 s
    Bit rate                    : 55.7 kb/s
    Count of elements           : 1602
    Stream size                 : 19.2 MiB (0%)
    Title                       : Castellano [CinemaniaHDD]
    Language                    : Spanish
    Default                     : No
    Forced                      : No

    Text #3
    ID                          : 6
    Format                      : UTF-8
    Codec ID                    : S_TEXT/UTF8
    Codec ID/Info               : UTF-8 Plain Text
    Duration                    : 47 min 35 s
    Bit rate                    : 63 b/s
    Count of elements           : 744
    Stream size                 : 22.3 KiB (0%)
    Title                       : Inglés [CinemaniaHDD]
    Language                    : English
    Default                     : No
    Forced                      : No

    Menu
    00:00:00.000                : Chapter 01
    00:03:12.120                : Chapter 02
    00:14:45.160                : Chapter 03
    00:28:49.320                : Chapter 04
    00:48:16.600                : Chapter 05

     

  • Peso: 5.38 GiB Aprox ---- 33 GiB in 6 Chapters.

Sinopsis

Álex Ventura, un joven e inexperto diplomático, se ve convertido sin proponérselo en el líder de una misión que pondrá a prueba todas sus convicciones: recuperar el tesoro submarino robado por Frank Wild, un aventurero que recorre el mundo saqueando el patrimonio común que reposa en las profundidades del mar.

Español Latino AC3 2.0 WEB-DL – Español Castellano DTS 5.1 BD

Ficha técnica

Video trailer de la película

Enlaces de descarga

Rip de Bluray

Descargar La Fortuna (2021) Primera Temporada HD 1080p Latino




Aportes de DPeliculasHDmega la pass es:dpeliculashdmega.org Aportes de CinemaniaHD la pass es:cinemaniahdd.com

Películas relacionadas

descargar La Fortuna (2021) Primera Temporada HD 1080p Latino 1080p 1080p gratis, La Fortuna (2021) Primera Temporada HD 1080p Latino 1080p mega 1 link, La Fortuna (2021) Primera Temporada HD 1080p Latino 1080p serie completa, descargar La Fortuna (2021) Primera Temporada HD 1080p Latino 1080p gratis en mega.

La Fortuna (2021) Primera Temporada HD 1080p Latino pelicula full hd, La Fortuna (2021) Primera Temporada HD 1080p Latino mega latino, La Fortuna (2021) Primera Temporada HD 1080p Latino 4k latino, La Fortuna (2021) Primera Temporada HD 1080p Latino pelicula completa, La Fortuna (2021) Primera Temporada HD 1080p Latino descargar gratis, descargar La Fortuna (2021) Primera Temporada HD 1080p Latino pelicula latino, La Fortuna (2021) Primera Temporada HD 1080p Latino 1 link mega, La Fortuna (2021) Primera Temporada HD 1080p Latino 1 link google drive, La Fortuna (2021) Primera Temporada HD 1080p Latino hd 1080p latino.
Comentarios 0