×

¿Problemas para descargar con Mozilla, EDGE? Deshabilita la opción "Abrir vinculos en una pestaña nueva" tal como lo muestra ésta imagen.

La fórmula ganadora de Jerry y Marge (2022) REMUX 1080p Latino

19 vistas

Información de La fórmula ganadora de Jerry y Marge (2022) REMUX 1080p Latino

Datos de la película

  • Calidad: Full 1080p
  • Audio: Español Latino AC3 5.1 BLURAY - Ingles DTS 5.1 BLURAY
  • Subtitulos: Español Latino PGS - Ingles PGS
  • Resolución: 1920x1080p
  • Formato: MKV
  • Codec: H.264
  • Encoder: Melkor
  • Mediainfo: Clic para Mostrar Datos Ver
  • La Formula Ganadora de Jerry y Marge (2022) REMUX 1080p Latino.mkv
    Format                      : Matroska
    Format version              : Version 4
    File size                   : 27.9 GiB
    Duration                    : 1 h 36 min
    Overall bit rate mode       : Variable
    Overall bit rate            : 41.5 Mb/s
    Movie name                  : Jerry and Marge Go Large (2022) CinemaniaHDD.Net
    Encoded date                : UTC 2022-11-16 22:01:05
    Writing application         : mkvmerge v56.1.0 ('My Friend') 64-bit
    Writing library             : libebml v1.4.2 + libmatroska v1.6.4
    Attachments                 : CINEMANIAHD.png

    Video
    ID                          : 1
    ID in the original source m : 4113 (0x1011)
    Format                      : AVC
    Format/Info                 : Advanced Video Codec
    Format profile              : High@L4.1
    Format settings             : CABAC / 4 Ref Frames
    Format settings, CABAC      : Yes
    Format settings, Reference  : 4 frames
    Codec ID                    : V_MPEG4/ISO/AVC
    Duration                    : 1 h 36 min
    Bit rate mode               : Variable
    Bit rate                    : 37.3 Mb/s
    Maximum bit rate            : 39.0 Mb/s
    Width                       : 1 920 pixels
    Height                      : 1 080 pixels
    Display aspect ratio        : 16:9
    Frame rate mode             : Constant
    Frame rate                  : 23.976 (24000/1001) FPS
    Color space                 : YUV
    Chroma subsampling          : 4:2:0
    Bit depth                   : 8 bits
    Scan type                   : Progressive
    Bits/(Pixel*Frame)          : 0.750
    Stream size                 : 25.0 GiB (90%)
    Title                       : REMUX HD1080p [CinemaniaHDD]
    Default                     : Yes
    Forced                      : Yes
    Original source medium      : Blu-ray

    Audio #1
    ID                          : 2
    ID in the original source m : 4354 (0x1102)
    Format                      : AC-3
    Format/Info                 : Audio Coding 3
    Commercial name             : Dolby Digital
    Codec ID                    : A_AC3
    Duration                    : 1 h 36 min
    Bit rate mode               : Constant
    Bit rate                    : 640 kb/s
    Channel(s)                  : 6 channels
    Channel layout              : L R C LFE Ls Rs
    Sampling rate               : 48.0 kHz
    Frame rate                  : 31.250 FPS (1536 SPF)
    Compression mode            : Lossy
    Stream size                 : 440 MiB (2%)
    Title                       : Español Latino [CinemaniaHDD]
    Language                    : Spanish
    Service kind                : Complete Main
    Default                     : Yes
    Forced                      : Yes
    Original source medium      : Blu-ray

    Audio #2
    ID                          : 3
    ID in the original source m : 4352 (0x1100)
    Format                      : DTS XLL
    Format/Info                 : Digital Theater Systems
    Commercial name             : DTS-HD Master Audio
    Codec ID                    : A_DTS
    Duration                    : 1 h 36 min
    Bit rate mode               : Variable
    Bit rate                    : 3 538 kb/s
    Channel(s)                  : 6 channels
    Channel layout              : C L R Ls Rs LFE
    Sampling rate               : 48.0 kHz
    Frame rate                  : 93.750 FPS (512 SPF)
    Bit depth                   : 24 bits
    Compression mode            : Lossless
    Stream size                 : 2.38 GiB (9%)
    Title                       : Ingles [CinemaniaHDD]
    Language                    : English
    Default                     : No
    Forced                      : No
    Original source medium      : Blu-ray

    Text #1
    ID                          : 4
    ID in the original source m : 4610 (0x1202)
    Format                      : PGS
    Muxing mode                 : zlib
    Codec ID                    : S_HDMV/PGS
    Codec ID/Info               : Picture based subtitle format used on BDs/HD-DVDs
    Duration                    : 1 h 35 min
    Bit rate                    : 42.9 kb/s
    Count of elements           : 2786
    Stream size                 : 29.3 MiB (0%)
    Title                       : Español-PGS [CinemaniaHDD]
    Language                    : Spanish
    Default                     : No
    Forced                      : No
    Original source medium      : Blu-ray

    Text #2
    ID                          : 5
    ID in the original source m : 4608 (0x1200)
    Format                      : PGS
    Muxing mode                 : zlib
    Codec ID                    : S_HDMV/PGS
    Codec ID/Info               : Picture based subtitle format used on BDs/HD-DVDs
    Duration                    : 1 h 30 min
    Bit rate                    : 44.4 kb/s
    Count of elements           : 2836
    Stream size                 : 28.7 MiB (0%)
    Title                       : Ingles [CinemaniaHDD]
    Language                    : English
    Default                     : No
    Forced                      : No
    Original source medium      : Blu-ray

    Text #3
    ID                          : 6
    Format                      : UTF-8
    Codec ID                    : S_TEXT/UTF8
    Codec ID/Info               : UTF-8 Plain Text
    Duration                    : 1 h 23 min
    Bit rate                    : 0 b/s
    Count of elements           : 4
    Stream size                 : 249 Bytes (0%)
    Title                       : Forzados-SRT [CinemaniaHDD]
    Language                    : Spanish
    Default                     : Yes
    Forced                      : Yes

    Text #4
    ID                          : 7
    Format                      : UTF-8
    Codec ID                    : S_TEXT/UTF8
    Codec ID/Info               : UTF-8 Plain Text
    Duration                    : 1 h 30 min
    Bit rate                    : 72 b/s
    Count of elements           : 1389
    Stream size                 : 47.9 KiB (0%)
    Title                       : Español-SRT [CinemaniaHDD]
    Language                    : Spanish
    Default                     : No
    Forced                      : No

    Menu
    00:00:00.000                : Chapter 01
    00:05:24.490                : Chapter 02
    00:12:07.518                : Chapter 03
    00:18:31.151                : Chapter 04
    00:25:45.710                : Chapter 05
    00:35:08.898                : Chapter 06
    00:44:58.445                : Chapter 07
    00:52:50.584                : Chapter 08
    01:00:15.903                : Chapter 09
    01:09:13.440                : Chapter 10
    01:17:05.412                : Chapter 11
    01:24:04.247                : Chapter 12
    01:31:01.122                : Chapter 13

  • Peso: 27.9 GiB

Sinopsis

Descargar La fórmula ganadora de Jerry y Marge (2022) REMUX 1080p Latino. Basado en una historia real sobre la pareja Jerry y Marge Selbee, quienes ganaron la lotería y usan el dinero para revivir su pequeña ciudad.

Ficha técnica

Video trailer de la película

Enlaces de descarga

Rip de Bluray

Descargar La fórmula ganadora de Jerry y Marge (2022) REMUX 1080p Latino




Aportes de DPeliculasHDmega la pass es:dpeliculashdmega.org Aportes de CinemaniaHD la pass es:cinemaniahdd.com
Guardado en : Comedia , Drama , Remux

Películas relacionadas

descargar La fórmula ganadora de Jerry y Marge (2022) REMUX 1080p Latino Full 1080p 1080p gratis, La fórmula ganadora de Jerry y Marge (2022) REMUX 1080p Latino Full 1080p mega 1 link, La fórmula ganadora de Jerry y Marge (2022) REMUX 1080p Latino Full 1080p pelicula completa, descargar La fórmula ganadora de Jerry y Marge (2022) REMUX 1080p Latino Full 1080p gratis en mega.

La fórmula ganadora de Jerry y Marge (2022) REMUX 1080p Latino pelicula full hd, La fórmula ganadora de Jerry y Marge (2022) REMUX 1080p Latino mega latino, La fórmula ganadora de Jerry y Marge (2022) REMUX 1080p Latino 4k latino, La fórmula ganadora de Jerry y Marge (2022) REMUX 1080p Latino pelicula completa, La fórmula ganadora de Jerry y Marge (2022) REMUX 1080p Latino descargar gratis, descargar La fórmula ganadora de Jerry y Marge (2022) REMUX 1080p Latino pelicula latino, La fórmula ganadora de Jerry y Marge (2022) REMUX 1080p Latino 1 link mega, La fórmula ganadora de Jerry y Marge (2022) REMUX 1080p Latino 1 link google drive, La fórmula ganadora de Jerry y Marge (2022) REMUX 1080p Latino hd 1080p latino.
Comentarios 0