La forma del agua (2017) 1080p Latino

2.000 vistas
1 estrella2 estrellas3 estrellas4 estrellas5 estrellas (1 votos, promedio: 5,00 de 5)
Cargando…

Información de La forma del agua (2017) 1080p Latino

Datos de la película

  • Calidad: 1080p
  • Audio: Español Latino AC3 5.1 BLURAY - Ingles AC3 5.1 BLURAY
  • Subtitulos: Español Latino SRT- FORZADOS SRT
  • Resolución: 1920x1040p
  • Formato: MKV
  • Codec: H.264
  • Encoder: Dracarys
  • Mediainfo: Clic para Mostrar Datos Ver
  • Format                                   : Matroska
    Format version                           : Version 4 / Version 2
    File size                                : 3.91 GiB
    Duration                                 : 2 h 3 min
    Overall bit rate                         : 4 538 kb/s
    Movie name                               : CinemaniaHDD.com
    Encoded date                             : UTC 2018-03-01 03:53:38 / UTC 2018-02-28T16:22:01Z
    Writing application                      : mkvmerge v15.0.0 ('Duel with the Devil') 64-bit
    Writing library                          : libebml v1.3.5 + libmatroska v1.4.5 / Lavf57.7.2

    Video
    ID                                       : 1
    Format                                   : AVC
    Format/Info                              : Advanced Video Codec
    Format profile                           : [email protected]
    Format settings                          : CABAC / 4 Ref Frames
    Format settings, CABAC                   : Yes
    Format settings, RefFrames               : 4 frames
    Codec ID                                 : V_MPEG4/ISO/AVC
    Duration                                 : 2 h 3 min
    Bit rate                                 : 3 500 kb/s
    Width                                    : 1 920 pixels
    Height                                   : 1 040 pixels
    Display aspect ratio                     : 1.85:1
    Frame rate mode                          : Constant
    Frame rate                               : 23.976 (24000/1001) FPS
    Color space                              : YUV
    Chroma subsampling                       : 4:2:0
    Bit depth                                : 8 bits
    Scan type                                : Progressive
    Bits/(Pixel*Frame)                       : 0.073
    Stream size                              : 2.89 GiB (74%)
    Title                                    : La forma del agua (2017) 1080p Latino
    Writing library                          : x264 core 148 r2708 86b7198
    Encoding settings                        : cabac=1 / ref=4 / deblock=1:0:0 / analyse=0x3:0x113 / me=umh / subme=8 / psy=1 / psy_rd=1.00:0.00 / mixed_ref=1 / me_range=16 / chroma_me=1 / trellis=1 / 8x8dct=1 / cqm=0 / deadzone=21,11 / fast_pskip=1 / chroma_qp_offset=-2 / threads=32 / lookahead_threads=5 / sliced_threads=0 / nr=0 / decimate=1 / interlaced=0 / bluray_compat=0 / constrained_intra=0 / bframes=3 / b_pyramid=2 / b_adapt=2 / b_bias=0 / direct=3 / weightb=1 / open_gop=0 / weightp=2 / keyint=240 / keyint_min=24 / scenecut=40 / intra_refresh=0 / rc_lookahead=50 / rc=abr / mbtree=1 / bitrate=3500 / ratetol=1.0 / qcomp=0.60 / qpmin=0 / qpmax=69 / qpstep=4 / vbv_maxrate=62500 / vbv_bufsize=78125 / nal_hrd=none / filler=0 / ip_ratio=1.40 / aq=1:1.00
    Language                                 : English
    Default                                  : Yes
    Forced                                   : No
    Color range                              : Limited
    Color primaries                          : BT.709
    Transfer characteristics                 : BT.709
    Matrix coefficients                      : BT.709
    Statistics Tags Issue                    : mkvmerge v15.0.0 ('Duel with the Devil') 64-bit 2018-03-01 03:53:38 / mkvmerge v15.0.0 ('Duel with the Devil') 64-bit 2018-03-01 03:53:38 / UTC 2018-02-28T16:22:01Z
    FromStats_BitRate                        : 3448014
    FromStats_Duration                       : 02:03:19.434000000
    FromStats_FrameCount                     : 177409
    FromStats_StreamSize                     : 3189169281

    Audio #1
    ID                                       : 2
    Format                                   : AC-3
    Format/Info                              : Audio Coding 3
    Format settings, Endianness              : Big
    Codec ID                                 : A_AC3
    Duration                                 : 2 h 3 min
    Bit rate mode                            : Constant
    Bit rate                                 : 448 kb/s
    Channel(s)                               : 6 channels
    Channel positions                        : Front: L C R, Side: L R, LFE
    Sampling rate                            : 48.0 kHz
    Frame rate                               : 31.250 FPS (1536 SPF)
    Bit depth                                : 16 bits
    Compression mode                         : Lossy
    Delay relative to video                  : -5 ms
    Stream size                              : 395 MiB (10%)
    Language                                 : Spanish
    Service kind                             : Complete Main
    Default                                  : Yes
    Forced                                   : No
    Statistics Tags Issue                    : mkvmerge v15.0.0 ('Duel with the Devil') 64-bit 2018-03-01 03:53:38 / mkvmerge v15.0.0 ('Duel with the Devil') 64-bit 2018-03-01 03:53:38 / UTC 2018-02-28T16:22:01Z
    FromStats_BitRate                        : 448000
    FromStats_Duration                       : 02:03:19.456000000
    FromStats_FrameCount                     : 231233
    FromStats_StreamSize                     : 414369536

    Audio #2
    ID                                       : 3
    Format                                   : AC-3
    Format/Info                              : Audio Coding 3
    Format settings, Endianness              : Big
    Codec ID                                 : A_AC3
    Duration                                 : 2 h 3 min
    Bit rate mode                            : Constant
    Bit rate                                 : 640 kb/s
    Channel(s)                               : 6 channels
    Channel positions                        : Front: L C R, Side: L R, LFE
    Sampling rate                            : 48.0 kHz
    Frame rate                               : 31.250 FPS (1536 SPF)
    Bit depth                                : 16 bits
    Compression mode                         : Lossy
    Delay relative to video                  : -5 ms
    Stream size                              : 565 MiB (14%)
    Language                                 : English
    Service kind                             : Complete Main
    Default                                  : No
    Forced                                   : No
    Statistics Tags Issue                    : mkvmerge v15.0.0 ('Duel with the Devil') 64-bit 2018-03-01 03:53:38 / mkvmerge v15.0.0 ('Duel with the Devil') 64-bit 2018-03-01 03:53:38 / UTC 2018-02-28T16:22:01Z
    FromStats_BitRate                        : 640000
    FromStats_Duration                       : 02:03:19.424000000
    FromStats_FrameCount                     : 231232
    FromStats_StreamSize                     : 591953920

    Text #1
    ID                                       : 4
    Format                                   : UTF-8
    Codec ID                                 : S_TEXT/UTF8
    Codec ID/Info                            : UTF-8 Plain Text
    Language                                 : Spanish
    Default                                  : Yes
    Forced                                   : Yes
    Statistics Tags Issue                    : mkvmerge v15.0.0 ('Duel with the Devil') 64-bit 2018-03-01 03:53:38 / mkvmerge v15.0.0 ('Duel with the Devil') 64-bit 2018-03-01 03:53:38 / UTC 2018-02-28T16:22:01Z
    FromStats_BitRate                        : 4
    FromStats_Duration                       : 01:48:22.169000000
    FromStats_FrameCount                     : 193
    FromStats_StreamSize                     : 3734

    Text #2
    ID                                       : 5
    Format                                   : UTF-8
    Codec ID                                 : S_TEXT/UTF8
    Codec ID/Info                            : UTF-8 Plain Text
    Language                                 : Spanish
    Default                                  : No
    Forced                                   : No
    Statistics Tags Issue                    : mkvmerge v15.0.0 ('Duel with the Devil') 64-bit 2018-03-01 03:53:38 / mkvmerge v15.0.0 ('Duel with the Devil') 64-bit 2018-03-01 03:53:38 / UTC 2018-02-28T16:22:01Z
    FromStats_BitRate                        : 46
    FromStats_Duration                       : 01:56:29.741000000
    FromStats_FrameCount                     : 1372
    FromStats_StreamSize                     : 40304

    Menu
    00:00:00.000                             : :00:00:00.000
    00:06:24.467                             : :00:06:24.467
    00:12:54.774                             : :00:12:54.774
    00:18:32.987                             : :00:18:32.987
    00:23:45.591                             : :00:23:45.591
    00:29:39.653                             : :00:29:39.653
    00:35:29.836                             : :00:35:29.836
    00:39:30.535                             : :00:39:30.535
    00:42:42.435                             : :00:42:42.435
    00:48:34.036                             : :00:48:34.036
    00:52:26.935                             : :00:52:26.935
    00:57:30.197                             : :00:57:30.197
    01:01:52.542                             : :01:01:52.542
    01:07:35.552                             : :01:07:35.551
    01:12:13.496                             : :01:12:13.496
    01:17:50.791                             : :01:17:50.791
    01:21:17.122                             : :01:21:17.122
    01:26:05.911                             : :01:26:05.911
    01:32:48.480                             : :01:32:48.480
    01:37:18.750                             : :01:37:18.750
    01:43:24.115                             : :01:43:24.115
    01:46:06.610                             : :01:46:06.610
    01:50:31.667                             : :01:50:31.667
    01:58:34.858                             : :01:58:34.858

  • Peso: 3.91 GiB

Sinopsis

En un inquietante laboratorio de alta seguridad, durante la Guerra Fría, se produce una conexión insólita entre dos mundos, aparentemente alejados. La vida de la solitaria Elisa (Sally Hawkins), trabajadora del laboratorio, cambia por completo cuando descubre un experimento clasificado como secreto: un hombre anfibio (Doug Jones) que se encuentra ahí recluido.

Ficha técnica

Video trailer de la película

Enlaces de descarga

Rip de Bluray

Descargar La forma del agua (2017) 1080p Latino




Aportes de DPeliculasHDmega la pass es:dpeliculashdmega.org Aportes de CinemaniaHD la pass es:cinemaniahdd.com
Guardado en : Drama , Fantasía , Romance

Películas relacionadas

  • Someone Great (2019) NF 1080p Latino

    2019
    Someone Great (2019) NF 1080p Latino

    0.0 1h 32m 2019

    Para Makani Young, mudarse a Nebraska desde Hawaii, resultó todo un choque cultural. Todavía adaptándose...

    Director: Jennifer Kaytin Robinson

    Género: Comedia

    Actores: Thomas Kopache

  • Miss Bala (2019) 1080p Latino

    2019
    Miss Bala (2019) 1080p Latino

    0.0 1h 44m 2019

    La ganadora de un concurso de belleza se ve obligada a trabajar para un jefe del crimen después de ser...

    Director: Catherine Hardwicke

    Género: Acción

    Actores: Roberto Sosa

Comentarios 0