×

¿Problemas para descargar con Mozilla, EDGE? Deshabilita la opción "Abrir vinculos en una pestaña nueva" tal como lo muestra ésta imagen.

La Farsa (2022) REMUX 1080p Latino

176 vistas

Información de La Farsa (2022) REMUX 1080p Latino

Datos de la película

  • Calidad: Full 1080p
  • Audio: Se especifica abajo de la Sinopsis
  • Subtitulos: Español Latino SRT- FORZADOS SRT
  • Resolución: 1920x1080p
  • Formato: MKV
  • Codec: H.264
  • Encoder: Melkor
  • Mediainfo: Clic para Mostrar Datos Ver
  • La Farsa (2022) REMUX 1080p Latino.mkv
    Format                      : Matroska
    Format version              : Version 4
    File size                   : 32.2 GiB
    Duration                    : 2 h 15 min
    Overall bit rate mode       : Variable
    Overall bit rate            : 34.1 Mb/s
    Movie name                  : Mascarade (2022) CinemaniaHDD.Net
    Encoded date                : UTC 2023-03-24 17:45:47
    Writing application         : mkvmerge v56.1.0 ('My Friend') 64-bit
    Writing library             : libebml v1.4.2 + libmatroska v1.6.4
    Attachments                 : CINEMANIAHD.png

    Video
    ID                          : 1
    ID in the original source m : 4113 (0x1011)
    Format                      : AVC
    Format/Info                 : Advanced Video Codec
    Format profile              : High@L4.1
    Format settings             : CABAC / 4 Ref Frames
    Format settings, CABAC      : Yes
    Format settings, Reference  : 4 frames
    Codec ID                    : V_MPEG4/ISO/AVC
    Duration                    : 2 h 15 min
    Bit rate mode               : Variable
    Bit rate                    : 29.8 Mb/s
    Maximum bit rate            : 36.0 Mb/s
    Width                       : 1 920 pixels
    Height                      : 1 080 pixels
    Display aspect ratio        : 16:9
    Frame rate mode             : Constant
    Frame rate                  : 24.000 FPS
    Color space                 : YUV
    Chroma subsampling          : 4:2:0
    Bit depth                   : 8 bits
    Scan type                   : Progressive
    Bits/(Pixel*Frame)          : 0.599
    Stream size                 : 28.2 GiB (87%)
    Title                       : REMUX HD1080p [CinemaniaHDD]
    Default                     : Yes
    Forced                      : Yes
    Original source medium      : Blu-ray

    Audio #1
    ID                          : 2
    Format                      : AC-3
    Format/Info                 : Audio Coding 3
    Commercial name             : Dolby Digital
    Codec ID                    : A_AC3
    Duration                    : 2 h 15 min
    Bit rate mode               : Constant
    Bit rate                    : 640 kb/s
    Channel(s)                  : 6 channels
    Channel layout              : L R C LFE Ls Rs
    Sampling rate               : 48.0 kHz
    Frame rate                  : 31.250 FPS (1536 SPF)
    Compression mode            : Lossy
    Stream size                 : 619 MiB (2%)
    Title                       : Español Latino [CinemaniaHDD]
    Language                    : Spanish
    Service kind                : Complete Main
    Default                     : Yes
    Forced                      : Yes

    Audio #2
    ID                          : 3
    ID in the original source m : 4353 (0x1101)
    Format                      : DTS XLL
    Format/Info                 : Digital Theater Systems
    Commercial name             : DTS-HD Master Audio
    Codec ID                    : A_DTS
    Duration                    : 2 h 15 min
    Bit rate mode               : Variable
    Bit rate                    : 3 627 kb/s
    Channel(s)                  : 6 channels
    Channel layout              : C L R Ls Rs LFE
    Sampling rate               : 48.0 kHz
    Frame rate                  : 93.750 FPS (512 SPF)
    Bit depth                   : 24 bits
    Compression mode            : Lossless
    Stream size                 : 3.42 GiB (11%)
    Title                       : Frances [CinemaniaHDD]
    Language                    : French
    Default                     : No
    Forced                      : No
    Original source medium      : Blu-ray

    Text #1
    ID                          : 4
    Format                      : UTF-8
    Codec ID                    : S_TEXT/UTF8
    Codec ID/Info               : UTF-8 Plain Text
    Duration                    : 2 h 9 min
    Bit rate                    : 0 b/s
    Count of elements           : 22
    Stream size                 : 597 Bytes (0%)
    Title                       : Forzados-SRT [CinemaniaHDD]
    Language                    : Spanish
    Default                     : Yes
    Forced                      : Yes

    Text #2
    ID                          : 5
    Format                      : UTF-8
    Codec ID                    : S_TEXT/UTF8
    Codec ID/Info               : UTF-8 Plain Text
    Duration                    : 2 h 9 min
    Bit rate                    : 58 b/s
    Count of elements           : 2204
    Stream size                 : 55.7 KiB (0%)
    Title                       : Español-SRT [CinemaniaHDD]
    Language                    : Spanish
    Default                     : No
    Forced                      : No

    Text #3
    ID                          : 6
    ID in the original source m : 4609 (0x1201)
    Format                      : PGS
    Muxing mode                 : zlib
    Codec ID                    : S_HDMV/PGS
    Codec ID/Info               : Picture based subtitle format used on BDs/HD-DVDs
    Duration                    : 2 h 14 min
    Bit rate                    : 44.8 kb/s
    Count of elements           : 6262
    Stream size                 : 43.1 MiB (0%)
    Title                       : Frances [CinemaniaHDD]
    Language                    : French
    Default                     : No
    Forced                      : No
    Original source medium      : Blu-ray

    Menu
    00:00:00.000                : Chapter 01
    00:11:06.250                : Chapter 02
    00:23:51.708                : Chapter 03
    00:37:11.125                : Chapter 04
    00:48:11.750                : Chapter 05
    00:59:37.583                : Chapter 06
    01:09:48.625                : Chapter 07
    01:21:02.666                : Chapter 08
    01:35:13.833                : Chapter 09
    01:45:14.708                : Chapter 10
    01:58:55.208                : Chapter 11
    02:11:12.625                : Chapter 12

  • Peso: 32.2 GiB

Sinopsis

Descargar La Farsa (2022) REMUX 1080p Latino. Adrien, un seductor bailarín que ve su carrera terminada a causa de un accidente de moto, malgasta su juventud dejándose llevar por la ociosidad de la Costa Azul, mantenido por Martha, gloria pasada del cine. Su vida da un vuelco cuando conoce a Margot, una criatura fascinante que vive a base de estafas y manipulaciones amorosas. Juntos soñarán con una vida mejor y pondrán en marcha una estratagema diabólica, una farsa sentimental.

Español Latino AC3 5.1 Web – Frances DTS-HD 5.1 BD

Ficha técnica

Video trailer de la película

Enlaces de descarga

Rip de Bluray

Descargar La Farsa (2022) REMUX 1080p Latino




Aportes de DPeliculasHDmega la pass es:dpeliculashdmega.org Aportes de CinemaniaHD la pass es:cinemaniahdd.com Aportes recientes:cinemaniahdd.net
Guardado en : Comedia , Crimen , Drama , Remux , Romance

Películas relacionadas

descargar La Farsa (2022) REMUX 1080p Latino Full 1080p 1080p gratis, La Farsa (2022) REMUX 1080p Latino Full 1080p mega 1 link, La Farsa (2022) REMUX 1080p Latino Full 1080p pelicula completa, descargar La Farsa (2022) REMUX 1080p Latino Full 1080p gratis en mega.

La Farsa (2022) REMUX 1080p Latino pelicula full hd, La Farsa (2022) REMUX 1080p Latino mega latino, La Farsa (2022) REMUX 1080p Latino 4k latino, La Farsa (2022) REMUX 1080p Latino pelicula completa, La Farsa (2022) REMUX 1080p Latino descargar gratis, descargar La Farsa (2022) REMUX 1080p Latino pelicula latino, La Farsa (2022) REMUX 1080p Latino 1 link mega, La Farsa (2022) REMUX 1080p Latino 1 link google drive, La Farsa (2022) REMUX 1080p Latino hd 1080p latino.
Comentarios 0