×

¿Problemas para descargar con Mozilla, EDGE? Deshabilita la opción "Abrir vinculos en una pestaña nueva" tal como lo muestra ésta imagen.

La Exorcista (2022) 1080p Latino-CMHDD

49 vistas

Información de La Exorcista (2022) 1080p Latino-CMHDD

Datos de la película

  • Calidad: 1080p
  • Audio: Español Latino AC3 5.1 BLURAY
  • Subtitulos: No
  • Resolución: 1920x808p
  • Formato: MKV
  • Codec: H.264
  • Encoder: CinefiloCool
  • Mediainfo: Clic para Mostrar Datos Ver
  • La.Exorcista.2022.Bluray.1080p.x264.Latino-CC@CMHDD.mkv
    Format                      : Matroska
    Format version              : Version 4
    File size                   : 3.07 GiB
    Duration                    : 1 h 41 min
    Overall bit rate            : 4 308 kb/s
    Movie name                  : La Exorcista (2022) CinemaniaHDD.Net
    Encoded date                : UTC 2024-03-14 08:11:23
    Writing application         : mkvmerge v56.1.0 ('My Friend') 64-bit
    Writing library             : libebml v1.4.2 + libmatroska v1.6.4
    Attachments                 : CINEMANIAHD.png

    Video
    ID                          : 1
    Format                      : AVC
    Format/Info                 : Advanced Video Codec
    Format profile              : High@L4.1
    Format settings             : CABAC / 5 Ref Frames
    Format settings, CABAC      : Yes
    Format settings, Reference  : 5 frames
    Codec ID                    : V_MPEG4/ISO/AVC
    Duration                    : 1 h 41 min
    Bit rate                    : 3 858 kb/s
    Width                       : 1 920 pixels
    Height                      : 808 pixels
    Display aspect ratio        : 2.40:1
    Frame rate mode             : Constant
    Frame rate                  : 24.000 FPS
    Color space                 : YUV
    Chroma subsampling          : 4:2:0
    Bit depth                   : 8 bits
    Scan type                   : Progressive
    Bits/(Pixel*Frame)          : 0.104
    Stream size                 : 2.75 GiB (90%)
    Title                       : HD1080p [CinemaniaHDD]
    Writing library             : x264 core 164 r3182 be4f020
    Encoding settings           : cabac=1 / ref=5 / deblock=1:-3:-3 / analyse=0x3:0x113 / me=umh / subme=8 / psy=1 / psy_rd=1.00:0.15 / mixed_ref=1 / me_range=16 / chroma_me=1 / trellis=1 / 8x8dct=1 / cqm=0 / deadzone=21,11 / fast_pskip=0 / chroma_qp_offset=-3 / threads=25 / lookahead_threads=4 / sliced_threads=0 / nr=0 / decimate=1 / interlaced=0 / bluray_compat=0 / constrained_intra=0 / bframes=3 / b_pyramid=2 / b_adapt=2 / b_bias=0 / direct=3 / weightb=1 / open_gop=0 / weightp=2 / keyint=250 / keyint_min=24 / scenecut=40 / intra_refresh=0 / rc_lookahead=50 / rc=crf / mbtree=1 / crf=20.0 / qcomp=0.60 / qpmin=0 / qpmax=69 / qpstep=4 / ip_ratio=1.40 / aq=1:1.00
    Default                     : Yes
    Forced                      : Yes

    Audio
    ID                          : 2
    Format                      : AC-3
    Format/Info                 : Audio Coding 3
    Commercial name             : Dolby Digital
    Codec ID                    : A_AC3
    Duration                    : 1 h 41 min
    Bit rate mode               : Constant
    Bit rate                    : 448 kb/s
    Channel(s)                  : 6 channels
    Channel layout              : L R C LFE Ls Rs
    Sampling rate               : 48.0 kHz
    Frame rate                  : 31.250 FPS (1536 SPF)
    Compression mode            : Lossy
    Stream size                 : 327 MiB (10%)
    Title                       : Español Latino [CinemaniaHDD]
    Language                    : Spanish
    Service kind                : Complete Main
    Default                     : Yes
    Forced                      : Yes

    Menu
    00:00:00.000                : Chapter 01
    00:05:09.041                : Chapter 02
    00:23:09.416                : Chapter 03
    00:37:24.708                : Chapter 04
    00:50:50.375                : Chapter 05
    01:00:26.541                : Chapter 06
    01:14:02.833                : Chapter 07
    01:34:00.666                : Chapter 08
    01:37:13.000                : Chapter 09
    01:41:31.666                : Chapter 10

  • Peso: 3.07 GiB

Sinopsis

Descargar La Exorcista (2022) 1080p Latino-CMHDD. Ofelia, una joven monja recién llegada al pueblo de San Ramón, donde se ve obligada a realizar un exorcismo a una mujer embarazada. Cuando la posesión parece haber finalizado, ella descubre que la presencia maligna está tratando de regresar al cuerpo de la víctima. Para evitar esto, tendrá que arriesgarlo todo e incluso exponer sus debilidades a las fuerzas del mal.

Ficha técnica

Video trailer de la película

Enlaces de descarga

Rip de Bluray

Descargar La Exorcista (2022) 1080p Latino-CMHDD




Aportes de DPeliculasHDmega la pass es:dpeliculashdmega.org Aportes de CinemaniaHD la pass es:cinemaniahdd.com Aportes recientes:cinemaniahdd.net
Guardado en : HD 1080p , Terror

Películas relacionadas

  • Ferrari (2023) HD 1080p Latino

    Ferrari (2023) HD 1080p Latino

    2023
    Ferrari (2023) HD 1080p Latino

    2h 11m 2023

    Descargar Ferrari (2023) HD 1080p Latino. Verano de 1957. El ex piloto de carreras, Ferrari, está en...

    Director: Peter Thorell

    Género: Drama

    Actores: Wyatt Carnel

  • Lisa Frankenstein (2024) HD 1080p Latino

    Lisa Frankenstein (2024) HD 1080p Latino

    2024
    Lisa Frankenstein (2024) HD 1080p Latino

    1h 42m 2024

    Descargar Lisa Frankenstein (2024) HD 1080p Latino. En 1989, una impopular chica de secundaria llamada...

    Director: Zelda Williams

    Género: Comedia

    Actores: Wendy Miklovic

  • Lisa Frankenstein (2024) PLACEBO Full HD 1080p Latino

    Lisa Frankenstein (2024) PLACEBO Full HD 1080p Latino

    2024
    Lisa Frankenstein (2024) PLACEBO Full HD 1080p Latino

    1h 42m 2024

    Descargar Lisa Frankenstein (2024) PLACEBO Full HD 1080p Latino. En 1989, una impopular chica de secundaria...

    Director: Zelda Williams

    Género: Comedia

    Actores: Wendy Miklovic

  • Lisa Frankenstein (2024) REMUX 1080p Latino

    Lisa Frankenstein (2024) REMUX 1080p Latino

    2024
    Lisa Frankenstein (2024) REMUX 1080p Latino

    1h 42m 2024

    Descargar Lisa Frankenstein (2024) REMUX 1080p Latino. En 1989, una impopular chica de secundaria llamada...

    Director: Zelda Williams

    Género: Comedia

    Actores: Wendy Miklovic

  • Aguas siniestras (2024) HD 1080p Latino

    Aguas siniestras (2024) HD 1080p Latino

    2024
    Aguas siniestras (2024) HD 1080p Latino

    1h 56m 2024

    Descargar Aguas siniestras (2024) HD 1080p Latino. Ray Waller, una estrella del béisbol obligada a retirarse...

    Director: Phil DeSanti

    Género: HD 1080p

    Actores: Wyatt Russell

descargar La Exorcista (2022) 1080p Latino-CMHDD 1080p 1080p gratis, La Exorcista (2022) 1080p Latino-CMHDD 1080p mega 1 link, La Exorcista (2022) 1080p Latino-CMHDD 1080p pelicula completa, descargar La Exorcista (2022) 1080p Latino-CMHDD 1080p gratis en mega.

La Exorcista (2022) 1080p Latino-CMHDD pelicula full hd, La Exorcista (2022) 1080p Latino-CMHDD mega latino, La Exorcista (2022) 1080p Latino-CMHDD 4k latino, La Exorcista (2022) 1080p Latino-CMHDD pelicula completa, La Exorcista (2022) 1080p Latino-CMHDD descargar gratis, descargar La Exorcista (2022) 1080p Latino-CMHDD pelicula latino, La Exorcista (2022) 1080p Latino-CMHDD 1 link mega, La Exorcista (2022) 1080p Latino-CMHDD 1 link google drive, La Exorcista (2022) 1080p Latino-CMHDD hd 1080p latino.
Comentarios 0