×

¿Problemas para descargar con Mozilla, EDGE? Deshabilita la opción "Abrir vinculos en una pestaña nueva" tal como lo muestra ésta imagen.

La Exorcista (2022) Full HD 1080p Latino-CMHDD

165 vistas

Información de La Exorcista (2022) Full HD 1080p Latino-CMHDD

Datos de la película

  • Calidad: Full 1080p
  • Audio: Español Latino DTS 5.1 BLURAY
  • Subtitulos: No
  • Resolución: 1920x1080p
  • Formato: MKV
  • Codec: H.264
  • Encoder: CinefiloCool
  • Mediainfo: Clic para Mostrar Datos Ver
  • La.Exorcista.2022.Bluray.FullHD.1080p.x264.Latino-CC@CMHDD.mkv
    Format                      : Matroska
    Format version              : Version 4
    File size                   : 4.73 GiB
    Duration                    : 1 h 41 min
    Overall bit rate            : 6 641 kb/s
    Movie name                  : La exorcista (2022) CinemaniaHDD.Net
    Encoded date                : UTC 2024-03-15 03:44:40
    Writing application         : mkvmerge v56.1.0 ('My Friend') 64-bit
    Writing library             : libebml v1.4.2 + libmatroska v1.6.4
    Attachments                 : CINEMANIAHD.png

    Video
    ID                          : 1
    Format                      : AVC
    Format/Info                 : Advanced Video Codec
    Format profile              : High@L4.1
    Format settings             : CABAC / 4 Ref Frames
    Format settings, CABAC      : Yes
    Format settings, Reference  : 4 frames
    Codec ID                    : V_MPEG4/ISO/AVC
    Duration                    : 1 h 41 min
    Bit rate                    : 5 129 kb/s
    Width                       : 1 920 pixels
    Height                      : 1 080 pixels
    Display aspect ratio        : 16:9
    Frame rate mode             : Constant
    Frame rate                  : 24.000 FPS
    Color space                 : YUV
    Chroma subsampling          : 4:2:0
    Bit depth                   : 8 bits
    Scan type                   : Progressive
    Bits/(Pixel*Frame)          : 0.103
    Stream size                 : 3.65 GiB (77%)
    Title                       : Full HD1080p [CinemaniaHDD]
    Writing library             : x264 core 163 r3059 b684ebe0
    Encoding settings           : cabac=1 / ref=4 / deblock=1:0:0 / analyse=0x3:0x133 / me=tesa / subme=11 / psy=1 / psy_rd=1.00:0.00 / mixed_ref=1 / me_range=24 / chroma_me=1 / trellis=2 / 8x8dct=1 / cqm=0 / deadzone=21,11 / fast_pskip=0 / chroma_qp_offset=-2 / threads=24 / lookahead_threads=6 / sliced_threads=0 / nr=0 / decimate=1 / interlaced=0 / bluray_compat=0 / constrained_intra=0 / bframes=16 / b_pyramid=2 / b_adapt=2 / b_bias=0 / direct=3 / weightb=1 / open_gop=0 / weightp=2 / keyint=240 / keyint_min=24 / scenecut=40 / intra_refresh=0 / rc_lookahead=60 / rc=crf / mbtree=1 / crf=18.0 / qcomp=0.60 / qpmin=0 / qpmax=69 / qpstep=4 / vbv_maxrate=62500 / vbv_bufsize=78125 / crf_max=0.0 / nal_hrd=none / filler=0 / ip_ratio=1.40 / aq=1:1.00
    Default                     : Yes
    Forced                      : Yes
    Color range                 : Limited
    Color primaries             : BT.709
    Transfer characteristics    : BT.709
    Matrix coefficients         : BT.709

    Audio
    ID                          : 2
    Format                      : DTS
    Format/Info                 : Digital Theater Systems
    Codec ID                    : A_DTS
    Duration                    : 1 h 41 min
    Bit rate mode               : Constant
    Bit rate                    : 1 509 kb/s
    Channel(s)                  : 6 channels
    Channel layout              : C L R Ls Rs LFE
    Sampling rate               : 48.0 kHz
    Frame rate                  : 93.750 FPS (512 SPF)
    Bit depth                   : 24 bits
    Compression mode            : Lossy
    Stream size                 : 1.07 GiB (23%)
    Title                       : Español Latino [CinemaniaHDD]
    Language                    : Spanish
    Default                     : Yes
    Forced                      : Yes

    Menu
    00:00:00.000                : Chapter 01
    00:05:09.041                : Chapter 02
    00:23:09.416                : Chapter 03
    00:37:24.708                : Chapter 04
    00:50:50.375                : Chapter 05
    01:00:26.541                : Chapter 06
    01:14:02.833                : Chapter 07
    01:34:00.666                : Chapter 08
    01:37:13.000                : Chapter 09
    01:41:31.666                : Chapter 10

  • Peso: 4.73 GiB

Sinopsis

Descargar La Exorcista (2022) Full HD 1080p Latino-CMHDD. Ofelia, una joven monja recién llegada al pueblo de San Ramón, donde se ve obligada a realizar un exorcismo a una mujer embarazada. Cuando la posesión parece haber finalizado, ella descubre que la presencia maligna está tratando de regresar al cuerpo de la víctima. Para evitar esto, tendrá que arriesgarlo todo e incluso exponer sus debilidades a las fuerzas del mal.

Ficha técnica

Video trailer de la película

Enlaces de descarga

Rip de Bluray

Descargar La Exorcista (2022) Full HD 1080p Latino-CMHDD




Aportes de DPeliculasHDmega la pass es:dpeliculashdmega.org Aportes de CinemaniaHD la pass es:cinemaniahdd.com Aportes recientes:cinemaniahdd.net

Películas relacionadas

  • Inmaculada (2024) HD 1080p Latino

    Inmaculada (2024) HD 1080p Latino

    2024
    Inmaculada (2024) HD 1080p Latino

    1h 29m 2024

    Descargar Inmaculada (2024) HD 1080p Latino. Cecilia, una mujer de fe devota, recibe una calurosa bienvenida...

    Director: Valentina Scuro

    Género: HD 1080p

    Actores: Viviane Florentine Nicolai

  • Inmaculada (2024) PLACEBO Full HD 1080p Latino

    Inmaculada (2024) PLACEBO Full HD 1080p Latino

    2024
    Inmaculada (2024) PLACEBO Full HD 1080p Latino

    1h 29m 2024

    Descargar Inmaculada (2024) PLACEBO Full HD 1080p Latino. Cecilia, una mujer de fe devota, recibe una...

    Director: Valentina Scuro

    Género: FULL 1080p Plateadas

    Actores: Viviane Florentine Nicolai

  • Inmaculada (2024) REMUX 1080p Latino

    Inmaculada (2024) REMUX 1080p Latino

    2024
    Inmaculada (2024) REMUX 1080p Latino

    1h 29m 2024

    Descargar Inmaculada (2024) REMUX 1080p Latino. Cecilia, una mujer de fe devota, recibe una calurosa...

    Director: Valentina Scuro

    Género: Misterio

    Actores: Viviane Florentine Nicolai

  • Immaculate (2024) AMZN WEB-DL 1080p Latino

    Immaculate (2024) AMZN WEB-DL 1080p Latino

    2024
    Immaculate (2024) AMZN WEB-DL 1080p Latino

    1h 29m 2024

    Cecilia, una mujer de fe devota, recibe una calurosa bienvenida en la perfecta campiña italiana, donde...

    Director: Valentina Scuro

    Género: Misterio

    Actores: Viviane Florentine Nicolai

descargar La Exorcista (2022) Full HD 1080p Latino-CMHDD Full 1080p 1080p gratis, La Exorcista (2022) Full HD 1080p Latino-CMHDD Full 1080p mega 1 link, La Exorcista (2022) Full HD 1080p Latino-CMHDD Full 1080p pelicula completa, descargar La Exorcista (2022) Full HD 1080p Latino-CMHDD Full 1080p gratis en mega.

La Exorcista (2022) Full HD 1080p Latino-CMHDD pelicula full hd, La Exorcista (2022) Full HD 1080p Latino-CMHDD mega latino, La Exorcista (2022) Full HD 1080p Latino-CMHDD 4k latino, La Exorcista (2022) Full HD 1080p Latino-CMHDD pelicula completa, La Exorcista (2022) Full HD 1080p Latino-CMHDD descargar gratis, descargar La Exorcista (2022) Full HD 1080p Latino-CMHDD pelicula latino, La Exorcista (2022) Full HD 1080p Latino-CMHDD 1 link mega, La Exorcista (2022) Full HD 1080p Latino-CMHDD 1 link google drive, La Exorcista (2022) Full HD 1080p Latino-CMHDD hd 1080p latino.
Comentarios 0