La Era de Hielo 5 choque de mundos (2016) Full 1080p Latino

1.392 vistas
1 estrella2 estrellas3 estrellas4 estrellas5 estrellas (Ninguna valoración todavía)
Cargando…

Información de La Era de Hielo 5 choque de mundos (2016) Full 1080p Latino

Datos de la película

  • Calidad: Full 1080p
  • Audio: Español Latino AC3 5.1 BLURAY - Ingles DTS 5.1 BLURAY
  • Subtitulos: Español Latino PGS - Ingles PGS
  • Resolución: 1920x1080p
  • Formato: MKV
  • Codec: H.264
  • Encoder: Dracarys
  • Mediainfo: Clic para Mostrar Datos Ver
  • Format                                   : Matroska
    Format version                           : Version 4 / Version 2
    File size                                : 4.61 GiB
    Duration                                 : 1 h 34 min
    Overall bit rate                         : 6 978 kb/s
    Movie name                               : CinemaniaHDD.com
    Encoded date                             : UTC 2018-03-22 17:47:24 / UTC 2018-03-21T06:42:11Z
    Writing application                      : mkvmerge v15.0.0 ('Duel with the Devil') 64-bit
    Writing library                          : libebml v1.3.5 + libmatroska v1.4.5 / Lavf57.7.2

    Video
    ID                                       : 1
    Format                                   : AVC
    Format/Info                              : Advanced Video Codec
    Format profile                           : [email protected]
    Format settings                          : CABAC / 4 Ref Frames
    Format settings, CABAC                   : Yes
    Format settings, RefFrames               : 4 frames
    Codec ID                                 : V_MPEG4/ISO/AVC
    Duration                                 : 1 h 34 min
    Bit rate                                 : 4 882 kb/s
    Width                                    : 1 920 pixels
    Height                                   : 1 080 pixels
    Display aspect ratio                     : 16:9
    Frame rate mode                          : Constant
    Frame rate                               : 23.976 (24000/1001) FPS
    Color space                              : YUV
    Chroma subsampling                       : 4:2:0
    Bit depth                                : 8 bits
    Scan type                                : Progressive
    Bits/(Pixel*Frame)                       : 0.098
    Stream size                              : 3.22 GiB (70%)
    Title                                    : La Era de Hielo 5 choque de mundos (2016) Full 1080p Latino
    Writing library                          : x264 core 148 r2708 86b7198
    Encoding settings                        : cabac=1 / ref=4 / deblock=1:0:0 / analyse=0x3:0x133 / me=esa / subme=9 / psy=1 / psy_rd=1.00:0.00 / mixed_ref=1 / me_range=16 / chroma_me=1 / trellis=2 / 8x8dct=1 / cqm=0 / deadzone=21,11 / fast_pskip=1 / chroma_qp_offset=-2 / threads=34 / lookahead_threads=2 / sliced_threads=0 / nr=0 / decimate=1 / interlaced=0 / bluray_compat=0 / constrained_intra=0 / bframes=3 / b_pyramid=2 / b_adapt=2 / b_bias=0 / direct=3 / weightb=1 / open_gop=0 / weightp=2 / keyint=240 / keyint_min=24 / scenecut=40 / intra_refresh=0 / rc_lookahead=60 / rc=crf / mbtree=1 / crf=20.0 / qcomp=0.60 / qpmin=0 / qpmax=69 / qpstep=4 / vbv_maxrate=62500 / vbv_bufsize=78125 / crf_max=0.0 / nal_hrd=none / filler=0 / ip_ratio=1.40 / aq=1:1.00
    Language                                 : English
    Default                                  : Yes
    Forced                                   : No
    Color range                              : Limited
    Color primaries                          : BT.709
    Transfer characteristics                 : BT.709
    Matrix coefficients                      : BT.709
    Statistics Tags Issue                    : mkvmerge v15.0.0 ('Duel with the Devil') 64-bit 2018-03-22 17:47:24 / mkvmerge v15.0.0 ('Duel with the Devil') 64-bit 2018-03-22 17:47:24 / UTC 2018-03-21T06:42:11Z
    FromStats_BitRate                        : 4998766
    FromStats_Duration                       : 01:34:32.751000000
    FromStats_FrameCount                     : 136010
    FromStats_StreamSize                     : 3544594671

    Audio #1
    ID                                       : 2
    Format                                   : AC-3
    Format/Info                              : Audio Coding 3
    Format settings, Endianness              : Big
    Codec ID                                 : A_AC3
    Duration                                 : 1 h 34 min
    Bit rate mode                            : Constant
    Bit rate                                 : 448 kb/s
    Channel(s)                               : 6 channels
    Channel positions                        : Front: L C R, Side: L R, LFE
    Sampling rate                            : 48.0 kHz
    Frame rate                               : 31.250 FPS (1536 SPF)
    Bit depth                                : 16 bits
    Compression mode                         : Lossy
    Stream size                              : 303 MiB (6%)
    Language                                 : Spanish
    Service kind                             : Complete Main
    Default                                  : Yes
    Forced                                   : No
    Statistics Tags Issue                    : mkvmerge v15.0.0 ('Duel with the Devil') 64-bit 2018-03-22 17:47:24 / mkvmerge v15.0.0 ('Duel with the Devil') 64-bit 2018-03-22 17:47:24 / UTC 2018-03-21T06:42:11Z
    FromStats_BitRate                        : 448000
    FromStats_Duration                       : 01:34:32.768000000
    FromStats_FrameCount                     : 177274
    FromStats_StreamSize                     : 317675008

    Audio #2
    ID                                       : 3
    Format                                   : DTS
    Format/Info                              : Digital Theater Systems
    Format profile                           : ES Matrix / Core
    Mode                                     : 16
    Format settings, Endianness              : Big
    Codec ID                                 : A_DTS
    Duration                                 : 1 h 34 min
    Bit rate mode                            : Constant
    Bit rate                                 : 1 509 kb/s
    Channel(s)                               : 7 channels / 6 channels
    Channel positions                        : Front: L C R, Side: L R, Back: C, LFE / Front: L C R, Side: L R, LFE
    Sampling rate                            : 48.0 kHz
    Frame rate                               : 93.750 FPS (512 SPF)
    Bit depth                                : 24 bits
    Compression mode                         : Lossy
    Stream size                              : 1 020 MiB (22%)
    Language                                 : English
    Default                                  : No
    Forced                                   : No
    Statistics Tags Issue                    : mkvmerge v15.0.0 ('Duel with the Devil') 64-bit 2018-03-22 17:47:24 / mkvmerge v15.0.0 ('Duel with the Devil') 64-bit 2018-03-22 17:47:24 / UTC 2018-03-21T06:42:11Z
    FromStats_BitRate                        : 1508999
    FromStats_Duration                       : 01:34:27.670000000
    FromStats_FrameCount                     : 531344
    FromStats_StreamSize                     : 1069064128

    Text #1
    ID                                       : 4
    Format                                   : PGS
    Muxing mode                              : zlib
    Codec ID                                 : S_HDMV/PGS
    Codec ID/Info                            : Picture based subtitle format used on BDs/HD-DVDs
    Language                                 : English
    Default                                  : No
    Forced                                   : No
    Statistics Tags Issue                    : mkvmerge v15.0.0 ('Duel with the Devil') 64-bit 2018-03-22 17:47:24 / mkvmerge v15.0.0 ('Duel with the Devil') 64-bit 2018-03-22 17:47:24 / UTC 2018-03-21T06:42:11Z
    FromStats_BitRate                        : 37959
    FromStats_Duration                       : 01:25:46.739000000
    FromStats_FrameCount                     : 2446
    FromStats_StreamSize                     : 24420917

    Text #2
    ID                                       : 5
    Format                                   : PGS
    Muxing mode                              : zlib
    Codec ID                                 : S_HDMV/PGS
    Codec ID/Info                            : Picture based subtitle format used on BDs/HD-DVDs
    Language                                 : Spanish
    Default                                  : No
    Forced                                   : No
    Statistics Tags Issue                    : mkvmerge v15.0.0 ('Duel with the Devil') 64-bit 2018-03-22 17:47:24 / mkvmerge v15.0.0 ('Duel with the Devil') 64-bit 2018-03-22 17:47:24 / UTC 2018-03-21T06:42:11Z
    FromStats_BitRate                        : 34257
    FromStats_Duration                       : 01:34:19.863000000
    FromStats_FrameCount                     : 2424
    FromStats_StreamSize                     : 24236884

    Menu
    00:00:00.000                             : :Chapter 1
    00:03:09.106                             : :Chapter 2
    00:05:24.366                             : :Chapter 3
    00:09:06.087                             : :Chapter 4
    00:13:22.302                             : :Chapter 5
    00:18:05.751                             : :Chapter 6
    00:20:50.583                             : :Chapter 7
    00:23:10.306                             : :Chapter 8
    00:27:29.898                             : :Chapter 9
    00:30:15.981                             : :Chapter 10
    00:32:54.347                             : :Chapter 11
    00:36:13.588                             : :Chapter 12
    00:39:33.454                             : :Chapter 13
    00:42:58.701                             : :Chapter 14
    00:47:35.019                             : :Chapter 15
    00:51:11.735                             : :Chapter 16
    00:55:50.764                             : :Chapter 17
    01:01:09.457                             : :Chapter 18
    01:05:06.403                             : :Chapter 19
    01:09:39.300                             : :Chapter 20
    01:14:36.889                             : :Chapter 21
    01:17:41.532                             : :Chapter 22
    01:21:43.065                             : :Chapter 23
    01:24:46.498                             : :Chapter 24

  • Peso: 4.61 GiB

Sinopsis

En la nueva historia veremos a Scrat y su mítica bellota en el espacio, donde accidentalmente desencadenará una serie de acontecimientos que amenazarán la Edad de Hielo. Para salvarse, Sid, Manny, Diego y el resto de la manada deberán salir de su hogar y embarcarse en una aventura llena de comedia y aventuras, viajando por tierras exóticas donde se encontrarán con nuevos y peculiares personajes.

Ficha técnica

Video trailer de la película

Enlaces de descarga

Rip de Bluray

Descargar La Era de Hielo 5 choque de mundos (2016) Full 1080p Latino




Aportes de DPeliculasHDmega la pass es:dpeliculashdmega.org Aportes de CinemaniaHD la pass es:cinemaniahdd.com

Películas relacionadas

  • Peloton (1986) Full 1080p Latino

    1986
    Peloton (1986) Full 1080p Latino

    0.0 2h 0m 1986

    Descargar Peloton (1986) Full 1080p Latino, Mega, Google Drive, Torrent. Chris Taylor es un ingenuo joven...

    Director: Tim Minear

    Género: Acción

    Actores: Willem Dafoe

  • Liga de la Justicia (2017) HD 1080p Latino

    2017
    Liga de la Justicia (2017) HD 1080p Latino

    4.0 2h 1m 2017

    Descargar Liga de la Justicia (2017) HD 1080p Latino, Mega, Google Drive, Torrent. Motivado por la fe...

    Director: Zack Snyder

    Género: Acción

    Actores: Sergi Constance

Comentarios 0