La Era de Hielo 4 (2012) Full 1080p Latino

881 vistas
1 estrella2 estrellas3 estrellas4 estrellas5 estrellas (Ninguna valoración todavía)
Cargando…

Información de La Era de Hielo 4 (2012) Full 1080p Latino

Datos de la película

  • Calidad: Full 1080p
  • Audio: Español Latino AC3 5.1 BLURAY - Ingles DTS 5.1 BLURAY
  • Subtitulos: Español Latino PGS - Ingles PGS
  • Resolución: 1920x1080p
  • Formato: MKV
  • Codec: H.264
  • Encoder: Dracarys
  • Mediainfo: Clic para Mostrar Datos Ver
  • Format                                   : Matroska
    Format version                           : Version 4 / Version 2
    File size                                : 4.49 GiB
    Duration                                 : 1 h 27 min
    Overall bit rate                         : 7 332 kb/s
    Movie name                               : CinemaniaHDD.com
    Encoded date                             : UTC 2018-03-22 18:36:13 / UTC 2018-03-21T04:55:04Z
    Writing application                      : mkvmerge v15.0.0 ('Duel with the Devil') 64-bit
    Writing library                          : libebml v1.3.5 + libmatroska v1.4.5 / Lavf57.7.2

    Video
    ID                                       : 1
    Format                                   : AVC
    Format/Info                              : Advanced Video Codec
    Format profile                           : High@L4.1
    Format settings                          : CABAC / 4 Ref Frames
    Format settings, CABAC                   : Yes
    Format settings, RefFrames               : 4 frames
    Codec ID                                 : V_MPEG4/ISO/AVC
    Duration                                 : 1 h 27 min
    Bit rate                                 : 5 229 kb/s
    Width                                    : 1 920 pixels
    Height                                   : 1 080 pixels
    Display aspect ratio                     : 16:9
    Frame rate mode                          : Constant
    Frame rate                               : 23.976 (24000/1001) FPS
    Color space                              : YUV
    Chroma subsampling                       : 4:2:0
    Bit depth                                : 8 bits
    Scan type                                : Progressive
    Bits/(Pixel*Frame)                       : 0.105
    Stream size                              : 3.21 GiB (71%)
    Title                                    : La Era de Hielo 4 (2012) Full 1080p Latino
    Writing library                          : x264 core 148 r2708 86b7198
    Encoding settings                        : cabac=1 / ref=4 / deblock=1:0:0 / analyse=0x3:0x133 / me=esa / subme=9 / psy=1 / psy_rd=1.00:0.00 / mixed_ref=1 / me_range=16 / chroma_me=1 / trellis=2 / 8x8dct=1 / cqm=0 / deadzone=21,11 / fast_pskip=1 / chroma_qp_offset=-2 / threads=34 / lookahead_threads=2 / sliced_threads=0 / nr=0 / decimate=1 / interlaced=0 / bluray_compat=0 / constrained_intra=0 / bframes=3 / b_pyramid=2 / b_adapt=2 / b_bias=0 / direct=3 / weightb=1 / open_gop=0 / weightp=2 / keyint=240 / keyint_min=24 / scenecut=40 / intra_refresh=0 / rc_lookahead=60 / rc=crf / mbtree=1 / crf=20.0 / qcomp=0.60 / qpmin=0 / qpmax=69 / qpstep=4 / vbv_maxrate=62500 / vbv_bufsize=78125 / crf_max=0.0 / nal_hrd=none / filler=0 / ip_ratio=1.40 / aq=1:1.00
    Language                                 : English
    Default                                  : Yes
    Forced                                   : No
    Color range                              : Limited
    Color primaries                          : BT.709
    Transfer characteristics                 : BT.709
    Matrix coefficients                      : BT.709
    Statistics Tags Issue                    : mkvmerge v15.0.0 ('Duel with the Devil') 64-bit 2018-03-22 18:36:13 / mkvmerge v15.0.0 ('Duel with the Devil') 64-bit 2018-03-22 18:36:13 / UTC 2018-03-21T04:55:04Z
    FromStats_BitRate                        : 5347610
    FromStats_Duration                       : 01:27:45.385000000
    FromStats_FrameCount                     : 126243
    FromStats_StreamSize                     : 3519653443

    Audio #1
    ID                                       : 2
    Format                                   : AC-3
    Format/Info                              : Audio Coding 3
    Format settings, Endianness              : Big
    Codec ID                                 : A_AC3
    Duration                                 : 1 h 27 min
    Bit rate mode                            : Constant
    Bit rate                                 : 448 kb/s
    Channel(s)                               : 6 channels
    Channel positions                        : Front: L C R, Side: L R, LFE
    Sampling rate                            : 48.0 kHz
    Frame rate                               : 31.250 FPS (1536 SPF)
    Bit depth                                : 16 bits
    Compression mode                         : Lossy
    Delay relative to video                  : 32 ms
    Stream size                              : 281 MiB (6%)
    Language                                 : Spanish
    Service kind                             : Complete Main
    Default                                  : Yes
    Forced                                   : No
    Statistics Tags Issue                    : mkvmerge v15.0.0 ('Duel with the Devil') 64-bit 2018-03-22 18:36:13 / mkvmerge v15.0.0 ('Duel with the Devil') 64-bit 2018-03-22 18:36:13 / UTC 2018-03-21T04:55:04Z
    FromStats_BitRate                        : 448000
    FromStats_Duration                       : 01:27:45.440000000
    FromStats_FrameCount                     : 164545
    FromStats_StreamSize                     : 294864640

    Audio #2
    ID                                       : 3
    Format                                   : DTS
    Format/Info                              : Digital Theater Systems
    Mode                                     : 16
    Format settings, Endianness              : Big
    Codec ID                                 : A_DTS
    Duration                                 : 1 h 27 min
    Bit rate mode                            : Constant
    Bit rate                                 : 1 509 kb/s
    Channel(s)                               : 6 channels
    Channel positions                        : Front: L C R, Side: L R, LFE
    Sampling rate                            : 48.0 kHz
    Frame rate                               : 93.750 FPS (512 SPF)
    Bit depth                                : 24 bits
    Compression mode                         : Lossy
    Delay relative to video                  : 43 ms
    Stream size                              : 947 MiB (21%)
    Language                                 : English
    Default                                  : No
    Forced                                   : No
    Statistics Tags Issue                    : mkvmerge v15.0.0 ('Duel with the Devil') 64-bit 2018-03-22 18:36:13 / mkvmerge v15.0.0 ('Duel with the Devil') 64-bit 2018-03-22 18:36:13 / UTC 2018-03-21T04:55:04Z
    FromStats_BitRate                        : 1509000
    FromStats_Duration                       : 01:27:45.376000000
    FromStats_FrameCount                     : 493629
    FromStats_StreamSize                     : 993181548

    Text #1
    ID                                       : 4
    Format                                   : PGS
    Muxing mode                              : zlib
    Codec ID                                 : S_HDMV/PGS
    Codec ID/Info                            : Picture based subtitle format used on BDs/HD-DVDs
    Language                                 : English
    Default                                  : No
    Forced                                   : No
    Statistics Tags Issue                    : mkvmerge v15.0.0 ('Duel with the Devil') 64-bit 2018-03-22 18:36:13 / mkvmerge v15.0.0 ('Duel with the Devil') 64-bit 2018-03-22 18:36:13 / UTC 2018-03-21T04:55:04Z
    FromStats_BitRate                        : 49151
    FromStats_Duration                       : 01:27:05.998000000
    FromStats_FrameCount                     : 3766
    FromStats_StreamSize                     : 32108111

    Text #2
    ID                                       : 5
    Format                                   : PGS
    Muxing mode                              : zlib
    Codec ID                                 : S_HDMV/PGS
    Codec ID/Info                            : Picture based subtitle format used on BDs/HD-DVDs
    Language                                 : Spanish
    Default                                  : No
    Forced                                   : No
    Statistics Tags Issue                    : mkvmerge v15.0.0 ('Duel with the Devil') 64-bit 2018-03-22 18:36:13 / mkvmerge v15.0.0 ('Duel with the Devil') 64-bit 2018-03-22 18:36:13 / UTC 2018-03-21T04:55:04Z
    FromStats_BitRate                        : 31563
    FromStats_Duration                       : 01:26:12.528000000
    FromStats_FrameCount                     : 2106
    FromStats_StreamSize                     : 20407571

    Menu
    00:00:00.000                             : :Chapter 1
    00:03:25.038                             : :Chapter 2
    00:05:08.266                             : :Chapter 3
    00:09:34.449                             : :Chapter 4
    00:13:09.789                             : :Chapter 5
    00:15:56.414                             : :Chapter 6
    00:18:23.728                             : :Chapter 7
    00:22:24.760                             : :Chapter 8
    00:25:57.598                             : :Chapter 9
    00:29:19.091                             : :Chapter 10
    00:32:58.685                             : :Chapter 11
    00:36:15.465                             : :Chapter 12
    00:38:42.737                             : :Chapter 13
    00:43:49.794                             : :Chapter 14
    00:45:30.728                             : :Chapter 15
    00:49:40.060                             : :Chapter 16
    00:53:50.602                             : :Chapter 17
    00:57:23.982                             : :Chapter 18
    01:02:32.207                             : :Chapter 19
    01:08:09.502                             : :Chapter 20
    01:11:11.642                             : :Chapter 21
    01:13:15.808                             : :Chapter 22
    01:16:54.610                             : :Chapter 23
    01:19:24.843                             : :Chapter 24

  • Peso: 4.49 GiB

Sinopsis

La loca persecución de Scrat por su escurridiza bellota desde el principio de los tiempos, tiene consecuencias que cambiarán el mundo: un cataclismo continental que desencadenará la mayor de las aventuras para Manny, Diego y Sid. En medio de estas agitaciones, Sid se reencuentra con su Abuelita Gruñona y la manada tropieza con una extraña cuadrilla de piratas de altamar decididos a impedirles su regreso a casa.

Ficha técnica

Video trailer de la película

Enlaces de descarga

Rip de Bluray

Descargar La Era de Hielo 4 (2012) Full 1080p Latino




Aportes de DPeliculasHDmega la pass es:dpeliculashdmega.org Aportes de CinemaniaHD la pass es:cinemaniahdd.com

Películas relacionadas

  • La casa con un reloj en sus paredes (2018) 1080p Latino

    2018
    La casa con un reloj en sus paredes (2018) 1080p Latino

    5.0 1h 45m 2018

    Descargar La casa con un reloj en sus paredes (2018) 1080p Latino, Mega, Google Drive, Torrent. La historia...

    Director: Eli Roth

    Género: Familia

    Actores: Vanessa Anne Williams

  • Godzilla (2014) Full 1080p Latino

    2014
    Godzilla (2014) Full 1080p Latino

    4.2 2h 3m 2014

    Descargar Godzilla (2014) Full 1080p Latino, Mega, Google Drive, Torrent. Gareth Edwards dirige este...

    Director: Jessica Clothier

    Género: Acción

    Actores: Yuki Morita

  • Un pequeño favor (2018) Full 1080p Latino

    2018
    Un pequeño favor (2018) Full 1080p Latino

    5.0 1h 57m 2018

    Descargar Un pequeño favor (2018) Full 1080p Latino, Mega, Google Drive, Torrent. Stephanie es una joven...

    Director: Paul Feig

    Género: Crimen

    Actores: Zach Smadu

Comentarios 0