La Era de Hielo 3 El Origen de los Dinosaurios (2009) Full 1080p Latino

916 vistas
1 estrella2 estrellas3 estrellas4 estrellas5 estrellas (1 votos, promedio: 5,00 de 5)
Cargando…

Información de La Era de Hielo 3 El Origen de los Dinosaurios (2009) Full 1080p Latino

Datos de la película

  • Calidad: Full 1080p
  • Audio: Español Latino AC3 5.1 BLURAY - Ingles DTS 5.1 BLURAY
  • Subtitulos: Español Latino PGS - Ingles PGS
  • Resolución: 1920x1080p
  • Formato: MKV
  • Codec: H.264
  • Encoder: Dracarys
  • Mediainfo: Clic para Mostrar Datos Ver
  • Format                                   : Matroska
    Format version                           : Version 4 / Version 2
    File size                                : 5.07 GiB
    Duration                                 : 1 h 34 min
    Overall bit rate                         : 7 717 kb/s
    Movie name                               : CinemaniaHDD.com
    Encoded date                             : UTC 2018-03-22 18:16:43 / UTC 2018-03-21T02:58:40Z
    Writing application                      : mkvmerge v15.0.0 ('Duel with the Devil') 64-bit
    Writing library                          : libebml v1.3.5 + libmatroska v1.4.5 / Lavf57.7.2

    Video
    ID                                       : 1
    Format                                   : AVC
    Format/Info                              : Advanced Video Codec
    Format profile                           : [email protected]
    Format settings                          : CABAC / 4 Ref Frames
    Format settings, CABAC                   : Yes
    Format settings, RefFrames               : 4 frames
    Codec ID                                 : V_MPEG4/ISO/AVC
    Duration                                 : 1 h 34 min
    Bit rate                                 : 5 607 kb/s
    Width                                    : 1 920 pixels
    Height                                   : 1 080 pixels
    Display aspect ratio                     : 16:9
    Frame rate mode                          : Constant
    Frame rate                               : 23.976 (24000/1001) FPS
    Color space                              : YUV
    Chroma subsampling                       : 4:2:0
    Bit depth                                : 8 bits
    Scan type                                : Progressive
    Bits/(Pixel*Frame)                       : 0.113
    Stream size                              : 3.68 GiB (73%)
    Title                                    : La Era de Hielo 3 El Origen de los Dinosaurios (2009) Full 1080p Latino
    Writing library                          : x264 core 148 r2708 86b7198
    Encoding settings                        : cabac=1 / ref=4 / deblock=1:0:0 / analyse=0x3:0x133 / me=esa / subme=9 / psy=1 / psy_rd=1.00:0.00 / mixed_ref=1 / me_range=16 / chroma_me=1 / trellis=2 / 8x8dct=1 / cqm=0 / deadzone=21,11 / fast_pskip=1 / chroma_qp_offset=-2 / threads=34 / lookahead_threads=2 / sliced_threads=0 / nr=0 / decimate=1 / interlaced=0 / bluray_compat=0 / constrained_intra=0 / bframes=3 / b_pyramid=2 / b_adapt=2 / b_bias=0 / direct=3 / weightb=1 / open_gop=0 / weightp=2 / keyint=240 / keyint_min=24 / scenecut=40 / intra_refresh=0 / rc_lookahead=60 / rc=crf / mbtree=1 / crf=20.0 / qcomp=0.60 / qpmin=0 / qpmax=69 / qpstep=4 / vbv_maxrate=62500 / vbv_bufsize=78125 / crf_max=0.0 / nal_hrd=none / filler=0 / ip_ratio=1.40 / aq=1:1.00
    Language                                 : English
    Default                                  : Yes
    Forced                                   : No
    Color range                              : Limited
    Color primaries                          : BT.709
    Transfer characteristics                 : BT.709
    Matrix coefficients                      : BT.709
    Statistics Tags Issue                    : mkvmerge v15.0.0 ('Duel with the Devil') 64-bit 2018-03-22 18:16:43 / mkvmerge v15.0.0 ('Duel with the Devil') 64-bit 2018-03-22 18:16:43 / UTC 2018-03-21T02:58:40Z
    FromStats_BitRate                        : 5735363
    FromStats_Duration                       : 01:34:03.305000000
    FromStats_FrameCount                     : 135304
    FromStats_StreamSize                     : 4045800439

    Audio #1
    ID                                       : 2
    Format                                   : AC-3
    Format/Info                              : Audio Coding 3
    Format settings, Endianness              : Big
    Codec ID                                 : A_AC3
    Duration                                 : 1 h 34 min
    Bit rate mode                            : Constant
    Bit rate                                 : 448 kb/s
    Channel(s)                               : 6 channels
    Channel positions                        : Front: L C R, Side: L R, LFE
    Sampling rate                            : 48.0 kHz
    Frame rate                               : 31.250 FPS (1536 SPF)
    Bit depth                                : 16 bits
    Compression mode                         : Lossy
    Delay relative to video                  : 1 s 0 ms
    Stream size                              : 301 MiB (6%)
    Language                                 : Spanish
    Service kind                             : Complete Main
    Default                                  : Yes
    Forced                                   : No
    Statistics Tags Issue                    : mkvmerge v15.0.0 ('Duel with the Devil') 64-bit 2018-03-22 18:16:43 / mkvmerge v15.0.0 ('Duel with the Devil') 64-bit 2018-03-22 18:16:43 / UTC 2018-03-21T02:58:40Z
    FromStats_BitRate                        : 448000
    FromStats_Duration                       : 01:34:01.792000000
    FromStats_FrameCount                     : 176306
    FromStats_StreamSize                     : 315940352

    Audio #2
    ID                                       : 3
    Format                                   : DTS
    Format/Info                              : Digital Theater Systems
    Format profile                           : ES Matrix / Core
    Mode                                     : 16
    Format settings, Endianness              : Big
    Codec ID                                 : A_DTS
    Duration                                 : 1 h 34 min
    Bit rate mode                            : Constant
    Bit rate                                 : 1 509 kb/s
    Channel(s)                               : 7 channels / 6 channels
    Channel positions                        : Front: L C R, Side: L R, Back: C, LFE / Front: L C R, Side: L R, LFE
    Sampling rate                            : 48.0 kHz
    Frame rate                               : 93.750 FPS (512 SPF)
    Bit depth                                : 24 bits
    Compression mode                         : Lossy
    Stream size                              : 1 015 MiB (20%)
    Language                                 : English
    Default                                  : No
    Forced                                   : No
    Statistics Tags Issue                    : mkvmerge v15.0.0 ('Duel with the Devil') 64-bit 2018-03-22 18:16:43 / mkvmerge v15.0.0 ('Duel with the Devil') 64-bit 2018-03-22 18:16:43 / UTC 2018-03-21T02:58:40Z
    FromStats_BitRate                        : 1508999
    FromStats_Duration                       : 01:34:03.307000000
    FromStats_FrameCount                     : 529060
    FromStats_StreamSize                     : 1064468720

    Text #1
    ID                                       : 4
    Format                                   : PGS
    Muxing mode                              : zlib
    Codec ID                                 : S_HDMV/PGS
    Codec ID/Info                            : Picture based subtitle format used on BDs/HD-DVDs
    Title                                    : Completos-PGS
    Language                                 : English
    Default                                  : No
    Forced                                   : No
    Statistics Tags Issue                    : mkvmerge v15.0.0 ('Duel with the Devil') 64-bit 2018-03-22 18:16:43 / mkvmerge v15.0.0 ('Duel with the Devil') 64-bit 2018-03-22 18:16:43 / UTC 2018-03-21T02:58:40Z
    FromStats_BitRate                        : 27580
    FromStats_Duration                       : 01:20:49.761000000
    FromStats_FrameCount                     : 1630
    FromStats_StreamSize                     : 16720101

    Text #2
    ID                                       : 5
    Format                                   : PGS
    Muxing mode                              : zlib
    Codec ID                                 : S_HDMV/PGS
    Codec ID/Info                            : Picture based subtitle format used on BDs/HD-DVDs
    Title                                    : Forzados-PGS
    Language                                 : Spanish
    Default                                  : Yes
    Forced                                   : Yes
    Statistics Tags Issue                    : mkvmerge v15.0.0 ('Duel with the Devil') 64-bit 2018-03-22 18:16:43 / mkvmerge v15.0.0 ('Duel with the Devil') 64-bit 2018-03-22 18:16:43 / UTC 2018-03-21T02:58:40Z
    FromStats_BitRate                        : 503
    FromStats_Duration                       : 00:19:49.230000000
    FromStats_FrameCount                     : 4
    FromStats_StreamSize                     : 74909

    Text #3
    ID                                       : 6
    Format                                   : PGS
    Muxing mode                              : zlib
    Codec ID                                 : S_HDMV/PGS
    Codec ID/Info                            : Picture based subtitle format used on BDs/HD-DVDs
    Title                                    : Completos-PGS
    Language                                 : Spanish
    Default                                  : No
    Forced                                   : No
    Statistics Tags Issue                    : mkvmerge v15.0.0 ('Duel with the Devil') 64-bit 2018-03-22 18:16:43 / mkvmerge v15.0.0 ('Duel with the Devil') 64-bit 2018-03-22 18:16:43 / UTC 2018-03-21T02:58:40Z
    FromStats_BitRate                        : 38176
    FromStats_Duration                       : 01:23:21.793000000
    FromStats_FrameCount                     : 1632
    FromStats_StreamSize                     : 23868911

    Menu
    00:00:00.000                             : :Chapter 1
    00:03:10.816                             : :Chapter 2
    00:10:38.847                             : :Chapter 3
    00:16:05.631                             : :Chapter 4
    00:20:00.449                             : :Chapter 5
    00:24:07.655                             : :Chapter 6
    00:27:29.648                             : :Chapter 7
    00:31:47.572                             : :Chapter 8
    00:36:10.669                             : :Chapter 9
    00:41:11.594                             : :Chapter 10
    00:48:29.073                             : :Chapter 11
    00:50:46.335                             : :Chapter 12
    00:57:03.003                             : :Chapter 13
    00:58:06.149                             : :Chapter 14
    01:03:11.288                             : :Chapter 15
    01:08:05.039                             : :Chapter 16
    01:11:37.043                             : :Chapter 17
    01:16:00.306                             : :Chapter 18
    01:21:05.069                             : :Chapter 19
    01:26:50.122                             : :Chapter 20

  • Peso: 5.07 GiB

Sinopsis

Tercera parte de las aventuras de Diego, Scrat y compañía. En esta ocasión, les tocará lidiar con varios dinosaurios. Scrat sigue intentando apoderarse de la muy escurridiza bellota (mientras, tal vez, encuentra el verdadero amor); Manny y Ellie esperan el nacimiento de su mini-mamut; Sid, el perezoso, se mete en un buen lío al formar de repente una familia propia tras encontrarse unos huevos de dinosaurio; y Diego, el tigre de dientes de sable, se pregunta si pasar tanto tiempo con sus amigos no le estará volviendo demasiado “blandito”. Con el fin de salvar al infortunado Sid, la pandilla se adentra en un misterioso mundo subterráneo, donde tienen algunos enfrentamientos con los dinosaurios, lidian con una enloquecida flora y fauna, y conocen a una comadreja tuerta e implacable cazadora de dinosaurios llamada Buck.

Ficha técnica

Video trailer de la película

Enlaces de descarga

Rip de Bluray

Descargar La Era de Hielo 3 El Origen de los Dinosaurios (2009) Full 1080p Latino




Aportes de DPeliculasHDmega la pass es:dpeliculashdmega.org Aportes de CinemaniaHD la pass es:cinemaniahdd.com

Películas relacionadas

  • The Sisters Brothers (2018) 1080p Subtitulado

    2018
    The Sisters Brothers (2018) 1080p Subtitulado

    0.0 2h 2m 2018

    Descargar The Sisters Brothers (2018) 1080p Subtitulado, Mega, Google Drive, Torrent. Narra la historia...

    Director: Jean-Baptiste Pouilloux

    Género: Comedia

    Actores: Zac Abbott

  • Once Upon a Deadpool (2018) Full 1080p Latino

    2018
    Once Upon a Deadpool (2018) Full 1080p Latino

    5.0 1h 57m 2018

    Deadpool (Ryan Reynolds) le cuenta al actor Fred Savage (el niño de "La Princesa Prometida") algunas...

    Director: David Leitch

    Género: Acción

    Actores: Zazie Beetz

  • El Reino de los Supermanes (2019) 1080p Latino

    2019
    El Reino de los Supermanes (2019) 1080p Latino

    5.0 1h 27m 2019

    Descargar El Reino de los Supermanes (2019) 1080p Latino, Mega, Google Drive, Torrent. Superman ha muerto...

    Director: Sam Liu

    Género: Acción

    Actores: Trevor Devall

  • Campeones (2018) HD 1080p Español

    2018
    Campeones (2018) HD 1080p Español

    0.0 2h 4m 2018

    Descargar Campeones (2018) HD 1080p Español, Mega, Google Drive, Torrent. Marco, un entrenador profesional...

    Director: Javier Fesser

    Género: Castellano

    Actores: Yiyo Alonso

Comentarios 0