×

¿Problemas para descargar con Mozilla, EDGE? Deshabilita la opción "Abrir vinculos en una pestaña nueva" tal como lo muestra ésta imagen.

La Desaparición de Eleanor Rigby (2013) WEB-DL 1080p Latino

851 vistas

Información de La Desaparición de Eleanor Rigby (2013) WEB-DL 1080p Latino

Datos de la película

  • Calidad: WEBDL
  • Audio: Español Latino AC3 2.0 - Ingles AC3 2.0
  • Subtitulos: Español Latino SRT- FORZADOS SRT
  • Resolución: 1920x1080
  • Formato: MKV
  • Codec: H.264
  • Encoder: cinemaniahdd
  • Mediainfo: Clic para Mostrar Datos Ver
  • La Desaparición de Eleanor Rigby (2013) WEB-DL 1080p Latino.mkv
    Format                      : Matroska
    Format version              : Version 4
    File size                   : 4.38 GiB
    Duration                    : 2 h 2 min
    Overall bit rate            : 5 110 kb/s
    Movie name                  : La Desaparición de Eleanor Rigby (2013) - CinemaniaHDD.Net
    Encoded date                : UTC 2020-04-04 00:23:36
    Writing application         : mkvmerge v42.0.0 ('Overtime') 64-bit
    Writing library             : libebml v1.3.10 + libmatroska v1.5.2

    Video
    ID                          : 1
    Format                      : AVC
    Format/Info                 : Advanced Video Codec
    Format profile              : High@L4
    Format settings             : CABAC / 2 Ref Frames
    Format settings, CABAC      : Yes
    Format settings, ReFrames   : 2 frames
    Codec ID                    : V_MPEG4/ISO/AVC
    Duration                    : 2 h 2 min
    Bit rate                    : 5 000 kb/s
    Width                       : 1 920 pixels
    Height                      : 1 080 pixels
    Display aspect ratio        : 16:9
    Frame rate mode             : Constant
    Frame rate                  : 29.970 FPS
    Color space                 : YUV
    Chroma subsampling          : 4:2:0
    Bit depth                   : 8 bits
    Scan type                   : Progressive
    Bits/(Pixel*Frame)          : 0.080
    Stream size                 : 4.16 GiB (95%)
    Title                       : CinemaniaHDD
    Writing library             : x264 core 148 r2579M 73ae2d1
    Encoding settings           : cabac=1 / ref=2 / deblock=1:0:0 / analyse=0x3:0x113 / me=hex / subme=2 / psy=1 / psy_rd=1.00:0.00 / mixed_ref=0 / me_range=16 / chroma_me=1 / trellis=0 / 8x8dct=1 / cqm=0 / deadzone=21,11 / fast_pskip=1 / chroma_qp_offset=0 / threads=4 / lookahead_threads=1 / sliced_threads=0 / nr=250 / decimate=1 / interlaced=0 / bluray_compat=0 / stitchable=1 / constrained_intra=0 / bframes=0 / weightp=1 / keyint=250 / keyint_min=25 / scenecut=40 / intra_refresh=0 / rc_lookahead=10 / rc=2pass / mbtree=1 / bitrate=5000 / ratetol=1.0 / qcomp=0.60 / qpmin=5 / qpmax=69 / qpstep=4 / cplxblur=20.0 / qblur=0.5 / vbv_maxrate=10000 / vbv_bufsize=5000 / nal_hrd=none / filler=0 / ip_ratio=1.40 / aq=1:1.00
    Language                    : English
    Default                     : Yes
    Forced                      : No
    Color range                 : Limited
    Color primaries             : BT.709
    Transfer characteristics    : BT.709
    Matrix coefficients         : BT.709

    Audio #1
    ID                          : 2
    Format                      : AAC LC SBR
    Format/Info                 : Advanced Audio Codec Low Complexity with Spectral Band Replication
    Commercial name             : HE-AAC
    Format settings             : Explicit
    Codec ID                    : A_AAC-2
    Duration                    : 2 h 2 min
    Bit rate                    : 127 kb/s
    Channel(s)                  : 2 channels
    Channel layout              : L R
    Sampling rate               : 48.0 kHz
    Frame rate                  : 23.438 FPS (2048 SPF)
    Compression mode            : Lossy
    Stream size                 : 111 MiB (2%)
    Title                       : Español latino [CinemaniaHDD]
    Language                    : Spanish
    Default                     : Yes
    Forced                      : No

    Audio #2
    ID                          : 3
    Format                      : AAC LC SBR
    Format/Info                 : Advanced Audio Codec Low Complexity with Spectral Band Replication
    Commercial name             : HE-AAC
    Format settings             : Explicit
    Codec ID                    : A_AAC-2
    Duration                    : 2 h 2 min
    Bit rate                    : 127 kb/s
    Channel(s)                  : 2 channels
    Channel layout              : L R
    Sampling rate               : 48.0 kHz
    Frame rate                  : 23.438 FPS (2048 SPF)
    Compression mode            : Lossy
    Stream size                 : 111 MiB (2%)
    Title                       : Inglés [CinemaniaHDD]
    Language                    : English
    Default                     : No
    Forced                      : No

    Text #1
    ID                          : 4
    Format                      : UTF-8
    Codec ID                    : S_TEXT/UTF8
    Codec ID/Info               : UTF-8 Plain Text
    Duration                    : 4 s 800 ms
    Bit rate                    : 56 b/s
    Count of elements           : 1
    Stream size                 : 34.0 Bytes (0%)
    Title                       : Forzados [CinemaniaHDD]
    Language                    : Spanish
    Default                     : Yes
    Forced                      : Yes

    Text #2
    ID                          : 5
    Format                      : UTF-8
    Codec ID                    : S_TEXT/UTF8
    Codec ID/Info               : UTF-8 Plain Text
    Duration                    : 1 h 53 min
    Bit rate                    : 35 b/s
    Count of elements           : 1117
    Stream size                 : 29.4 KiB (0%)
    Title                       : Español latino [CinemaniaHDD]
    Language                    : Spanish
    Default                     : No
    Forced                      : No

     

  • Peso: 4.38 GiB

Sinopsis

James McAvoy y Jessica Chastain forman una pareja que todos admiran; parecen muy enamorados, pero un día un golpe del destino afecta su matrimonio. Esta pareja neoyorquina debe tratar de comprenderse a la vez que elaboran su duelo e intentan resucitar su amor y recuperar su vida. The Disappearance of Eleanor Rigby es la historia de una pareja que busca el camino para reconstruirse, desde el punto de vista de cada uno, y cuenta con la participación de Viola Davis, Bill Hader, William Hurt e Isabelle Huppert.

Ficha técnica

  • Titulo original: The Disappearance of Eleanor Rigby: Them
  • Fecha de lanzamiento: 14-05-2014 (United States of America)
  • Director: Ned Benson
  • Género: Drama

Video trailer de la película

Enlaces de descarga

Rip de Bluray

Descargar La Desaparición de Eleanor Rigby (2013) WEB-DL 1080p Latino




Aportes de DPeliculasHDmega la pass es:dpeliculashdmega.org Aportes de CinemaniaHD la pass es:cinemaniahdd.com
Guardado en : Drama

Películas relacionadas

  • Togo (2022) NF WEB-DL 1080p Latino

    Togo (2022) NF WEB-DL 1080p Latino

    2022
    Togo (2022) NF WEB-DL 1080p Latino

    1h 35m 2022

    Descargar Togo (2022) NF WEB-DL 1080p Latino. Los narcos de poca monta están copando las calles de Montevideo...

    Director: Adrián Caetano

    Género: Crimen

    Actores: Tito Prieto

  • El Ultimo Juego (2021) WEB-DL 1080p Latino

    El Ultimo Juego (2021) WEB-DL 1080p Latino

    2021
    El Ultimo Juego (2021) WEB-DL 1080p Latino

    1h 21m 2021

    Descargar El Ultimo Juego (2021) WEB-DL 1080p Latino. 6 extraños se despiertan dentro de una habitación...

    Director: John David Moffat IV

    Género: Drama

    Actores: Yasmin Irvine

descargar La Desaparición de Eleanor Rigby (2013) WEB-DL 1080p Latino WEBDL 1080p gratis, La Desaparición de Eleanor Rigby (2013) WEB-DL 1080p Latino WEBDL mega 1 link, La Desaparición de Eleanor Rigby (2013) WEB-DL 1080p Latino WEBDL pelicula completa, descargar La Desaparición de Eleanor Rigby (2013) WEB-DL 1080p Latino WEBDL gratis en mega.

La Desaparición de Eleanor Rigby (2013) WEB-DL 1080p Latino pelicula full hd, La Desaparición de Eleanor Rigby (2013) WEB-DL 1080p Latino mega latino, La Desaparición de Eleanor Rigby (2013) WEB-DL 1080p Latino 4k latino, La Desaparición de Eleanor Rigby (2013) WEB-DL 1080p Latino pelicula completa, La Desaparición de Eleanor Rigby (2013) WEB-DL 1080p Latino descargar gratis, descargar La Desaparición de Eleanor Rigby (2013) WEB-DL 1080p Latino pelicula latino, La Desaparición de Eleanor Rigby (2013) WEB-DL 1080p Latino 1 link mega, La Desaparición de Eleanor Rigby (2013) WEB-DL 1080p Latino 1 link google drive, La Desaparición de Eleanor Rigby (2013) WEB-DL 1080p Latino hd 1080p latino.
Comentarios 0